Путешествие / Safar (Асит Сен / Asit Sen) [1970, Индия, Мелодрама, DVDRip] MVO (Red Media)

Ответить на тему
 
Автор Сообщение

user ®

Стаж: 12 лет

Сообщений: 15124

Пост Пост: #1 от 19-Июл-2013 00:52

[Цитировать]

Путешествие / Safar
Страна: Индия
Жанр: Мелодрама
Год выпуска: 1970
Продолжительность: 02:17:18
Перевод: Профессиональный (многоголосый закадровый) Red Media
Cубтитры: нет
Режиссер: Асит Сен / Asit Sen
В ролях: Ашок Кумар, Раджеш Кханна, Шармила Тагор, Аруна Ирани, Фероз Кхан, Брахмачари, Ифтекхар, Бирбал, Сачин, Джагдиш Радж, Нарбада Шанкар
Описание: Нила и Авинаш, студенты-медики, увлечены друг другом. Но Авинаш беден и хочет, лучшей жизни для Нилы. Когда Нила, которая учит Монто Каппора, встречает его старшего брата бизнесмена Шехара, тот влюбляется в нее. Он хочет предложить ей руку и сердце и встречается с ее братом, Калидасом, но тот говорит, что Шехар должен встретиться с Авинашем. Таким образом, Шехар встречается с Авинашем, рассказывает о своих намерениях. Авинаш одобряет их. Шехар и Нила женятся, но они обеспокоены тем, что Авинаш не был на свадьбе...
Сэмпл: http://multi-up.com/879516
Качество видео: DVDRip
Формат видео: AVI
Видео: XviD build 50, 688x528 (1.30:1), 25 fps, 1320 kbps avg
Аудио: AC3 Dolby Digital, 48 kHz, 2/0 (L,R) ch, 192.00 kbps avg

MediaInfo

General
Complete name : D:\НА *трекер\Puteshestvie.1970.XviD.DVDRip-Dego.avi
Format : AVI
Format/Info : Audio Video Interleave
File size : 1.46 GiB
Duration : 2h 17mn
Overall bit rate : 1 522 Kbps
Writing application : VirtualDubMod 1.5.10.2 (build 2540/release)
Writing library : VirtualDubMod build 2540/release
Video
ID : 0
Format : MPEG-4 Visual
Format profile : AdvancedSimple@L5
Format settings, BVOP : Yes
Format settings, QPel : No
Format settings, GMC : No warppoints
Format settings, Matrix : Default (MPEG)
Codec ID : XVID
Codec ID/Hint : XviD
Duration : 2h 17mn
Bit rate : 1 321 Kbps
Width : 688 pixels
Height : 528 pixels
Display aspect ratio : 4/3
Frame rate : 25.000 fps
Resolution : 24 bits
Colorimetry : 4:2:0
Scan type : Progressive
Bits/(Pixel*Frame) : 0.145
Stream size : 1.27 GiB (87%)
Writing library : XviD 1.2.1 (UTC 2008-12-04)
Audio
ID : 1
Format : AC-3
Format/Info : Audio Coding 3
Codec ID : 2000
Duration : 2h 17mn
Bit rate mode : Constant
Bit rate : 192 Kbps
Channel(s) : 2 channels
Channel positions : L R
Sampling rate : 48.0 KHz
Stream size : 189 MiB (13%)
Alignment : Split accross interleaves
Interleave, duration : 40 ms (1.00 video frame)
Interleave, preload duration : 500 ms

Скриншоты

Скачать

Скачать торрент! Путешествие / Safar (Асит Сен / Asit Sen) [1970, Индия, Мелодрама, DVDRip] MVO (Red Media)

Как скачивать? · Что такое торрент? · Рейтинг и ограничения

Сайт не распространяет и не хранит электронные версии произведений, а лишь предоставляет доступ к создаваемому пользователями каталогу ссылок на торрент-файлы, которые содержат только списки хеш-сумм

[Профиль] [ЛС]
Показать сообщения:    
Ответить на тему

Текущее время: Сегодня 14:11

Часовой пояс: GMT + 4



Вы не можете начинать темы
Вы не можете отвечать на сообщения
Вы не можете редактировать свои сообщения
Вы не можете удалять свои сообщения
Вы не можете голосовать в опросах
Вы не можете прикреплять файлы к сообщениям
Вы не можете скачивать файлы