Из глубины сердца / Gundello Godari (Кумар Нагендра / Kumar Nagendra) [2013, Индия, Драма, DVDRip] VO (zamez) + Original

Ответить на тему
 
Автор Сообщение

user ®

Стаж: 12 лет

Сообщений: 15124

Пост Пост: #1 от 19-Июл-2013 00:51

[Цитировать]

Из глубины сердца / Gundello Godari
-Страна: Индия
Жанр: Драма
Год выпуска: 2013
Продолжительность: 02:08:53--Язык: Тамили
Перевод: Одноголосый закадровый - zamez (по субтитрам Анастасия)
Оригинальная дорожка: Тамили
Cубтитры: Нет--Режиссер: Кумар Нагендра / Kumar Nagendra-В ролях: Ади, Таапси Панну, Лакшми Манчу Прасанна, Сандип Кишан, Рави Бабу, Суджа Варуни, Аннапурна--Описание: Август 1986 года. Проливные дожди в Индии вызывают сильное наводнение. Тем временем, на западном побережье Годавари, куда еще не добралась стихия, играют очередную свадьбу. Приехавшая без приглашения дочка состоятельного промышленника, дарит жениху Малли золотое кольцо, а богач из соседней деревни преподносит невесте Читре золотую цепочку. Гости начинают сплетничать о том, что молодоженов с ними явно что-то связывало в прошлом, поскольку такие дорогие подарки просто так не дарятся... Но внезапно в праздник вмешивается природа и люди в панике пытаются спасти свою жизнь. Малли и Читра, понимая, что не выживут и могут умереть в любой момент, решают развеять все сомнения и рассказывают друг другу о том, какие повороты судьбы им пришлось пережить и кто те люди, которые подарили им дорогие подарки. Из глубины сердца, по крупинкам, они начинают доставать свое прошлое... (с) Анастасия (bollywoodtime)--IMDb | Кинопоиск | Трейлер | Сэмпл--Качество видео: DVDRip
Формат видео: AVI-Видео: XVID, 720x304, 23.976 fps, 1153 Kbps-Аудио: АС3, 48 КHz, 2 сh, 192 Kbps [Rus]-Аудио: АС3, 48 КHz, 2 сh, 192 Kbps [Tamil]--Сэмпл / Sample--Релиз: bollywoodtime и
Перевод и редакция: Анастасия (спасибо!)
Творческое озвучивание: zamez (спасибо!)
Спонсирование и заказ озвучивания: net (спасибо!)
Сведение звука: Th4K-- -
-

Скриншот с названием:


-

Скриншоты:


-

MI:

Общее
Полное имя : K:\[Релизы]\DVDRip\Iz.Glubiny.Serdca.2013.DVDRip.XviD.bollywoodtime.BwTorrents.avi
Формат : AVI
Формат/Информация : Audio Video Interleave
Размер файла : 1,40 Гбайт
Продолжительность : 2 ч. 8 м.
Общий поток : 1551 Кбит/сек
Программа кодирования : VirtualDubMod 1.5.10.3 | www.virtualdub-fr.org || (build 2550/release)
Библиотека кодирования : VirtualDubMod build 2550/release
Видео
Идентификатор : 0
Формат : MPEG-4 Visual
Профиль формата : Advanced Simple@L5
Параметр BVOP формата : 1
Параметр QPel формата : Нет
Параметр GMC формата : Без точки перехода
Параметр матрицы формата : Выборочная
Идентификатор кодека : XVID
Идентификатор кодека/Подсказка : XviD
Продолжительность : 2 ч. 8 м.
Битрейт : 1153 Кбит/сек
Ширина : 720 пикселей
Высота : 304 пикселя
Соотношение сторон : 2,35:1
Частота кадров : 23,976 кадра/сек
Цветовое пространство : YUV
Субдискретизация насыщенности : 4:2:0
Битовая глубина : 8 бит
Тип развёртки : Прогрессивная
Метод сжатия : С потерями
Бит/(Пиксели*Кадры) : 0.220
Размер потока : 1,04 Гбайт (74%)
Библиотека кодирования : XviD 1.2.1 (UTC 2008-12-04)
Аудио #1
Идентификатор : 1
Формат : AC-3
Формат/Информация : Audio Coding 3
Расширение режима : CM (complete main)
Параметр Endianness формата : Big
Идентификатор кодека : 2000
Продолжительность : 2 ч. 8 м.
Вид битрейта : Постоянный
Битрейт : 192 Кбит/сек
Каналы : 2 канала
Расположение каналов : Front: L R
Частота : 48,0 КГц
Битовая глубина : 16 бит
Метод сжатия : С потерями
Размер потока : 177 Мбайт (12%)
Выравнивание : Разделение по промежуткам
Продолжительность промежутка : 42 мс. (1,00 видеокадр)
Время предзагрузки промежутка : 500 мс.
Аудио #2
Идентификатор : 2
Формат : AC-3
Формат/Информация : Audio Coding 3
Расширение режима : CM (complete main)
Параметр Endianness формата : Big
Идентификатор кодека : 2000
Продолжительность : 2 ч. 8 м.
Вид битрейта : Постоянный
Битрейт : 192 Кбит/сек
Каналы : 2 канала
Расположение каналов : Front: L R
Частота : 48,0 КГц
Битовая глубина : 16 бит
Метод сжатия : С потерями
Размер потока : 177 Мбайт (12%)
Выравнивание : Разделение по промежуткам
Продолжительность промежутка : 42 мс. (1,00 видеокадр)
Время предзагрузки промежутка : 500 мс.

-
-
Скачать

Скачать торрент! Из глубины сердца / Gundello Godari (Кумар Нагендра / Kumar Nagendra) [2013, Индия, Драма, DVDRip] VO (zamez) + Original

Как скачивать? · Что такое торрент? · Рейтинг и ограничения

Сайт не распространяет и не хранит электронные версии произведений, а лишь предоставляет доступ к создаваемому пользователями каталогу ссылок на торрент-файлы, которые содержат только списки хеш-сумм

[Профиль] [ЛС]
Показать сообщения:    
Ответить на тему

Текущее время: Сегодня 22:09

Часовой пояс: GMT + 4



Вы не можете начинать темы
Вы не можете отвечать на сообщения
Вы не можете редактировать свои сообщения
Вы не можете удалять свои сообщения
Вы не можете голосовать в опросах
Вы не можете прикреплять файлы к сообщениям
Вы не можете скачивать файлы