Один сумасшедший парень / Ekk Deewana Tha (Гаутам Менон / Gautham Menon) [2012, Индия, Мелодрама, DVDRip] VO (zamez) + Original

Ответить на тему
 
Автор Сообщение

user ®

Стаж: 12 лет

Сообщений: 15124

Пост Пост: #1 от 19-Июл-2013 00:51

[Цитировать]

Один сумасшедший парень / Ekk Deewana Tha
-Страна: Индия
Жанр: Мелодрама
Год выпуска: 2012
Продолжительность: 02:17:06-Перевод: Одноголосый закадровый - zamez (по субтитрам irsr & asalia)
Оригинальная дорожка: Хинди
Cубтитры: Нет--Режиссер: Гаутам Менон / Gautham Menon-В ролях: Пратик Баббар, Эми Джексон, Ману Риши, Сачин Кхедекар, Саманта Рут Прабху, Ашвин Какуману, Бабу Энтони--Описание: Чистая романтическая история любви. Сачин - 22-летний житель Мумбаи, который мечтает стать частью киноиндустрии. Джесси - красивая, умная, образованная девушка со степенью бакалавра по математике. Может ли между ними быть что-то общее. Разная вера, разное воспитание…и разное отношение к кино. Сачин грезит фильмами, а Джесси за всю жизнь посмотрела только несколько и ничего привлекательного в них не находит. Ну а главное препятствие-отец девушки, которому Сачин категорически не нравится. Это история первой любви со всеми её проблемами, горестями, радостями. История верности себе и своей любви. Фильм ремейк южных фильмов, но он свеж игрой актеров, теми чувствами, что они привнесли на экран.--IMDb | Кинопоиск | Трейлер | Сэмпл--Качество видео: DVDRip
Формат видео: AVI-Видео: XVID, 720x304, 25 fps, 1065 Kbps-Аудио: АС3, 48 КHz, 2 сh, 224 Kbps [Rus]-Аудио: МР3, 48 КHz, 2 сh, 128 Kbps [Hindi]--Сэмпл / Sample--Релиз:
Перевод и редакция: irsr & asalia (спасибо!)
Творческое озвучивание: zamez (спасибо!)
Спонсирование и заказ озвучивания: aseksuka (спасибо!)
Сведение звука: aseksuka (спасибо!)-- -
-

Скриншоты с названием:


-

Скриншоты:


-

MI:

Общее
Полное имя : D:\[DVDRip]\Odin.sumashedshiy.paren.2012.DVDRip.XviD.BwTorrents.avi
Формат : AVI
Формат/Информация : Audio Video Interleave
Размер файла : 1,37 Гбайт
Продолжительность : 2 ч. 17 м.
Общий поток : 1431 Кбит/сек
Программа кодирования : VirtualDubMod 1.5.10.3 | www.virtualdub-fr.org || (build 2550/release)
Библиотека кодирования : VirtualDubMod build 2550/release
Видео
Идентификатор : 0
Формат : MPEG-4 Visual
Профиль формата : Advanced Simple@L5
Параметр BVOP формата : 1
Параметр QPel формата : Нет
Параметр GMC формата : Без точки перехода
Параметр матрицы формата : Выборочная
Идентификатор кодека : XVID
Идентификатор кодека/Подсказка : XviD
Продолжительность : 2 ч. 17 м.
Битрейт : 1065 Кбит/сек
Ширина : 720 пикселей
Высота : 304 пикселя
Соотношение сторон : 2,35:1
Частота кадров : 25,000 кадров/сек
Цветовое пространство : YUV
Субдискретизация насыщенности : 4:2:0
Битовая глубина : 8 бит
Тип развёртки : Прогрессивная
Метод сжатия : С потерями
Бит/(Пиксели*Кадры) : 0.195
Размер потока : 1,02 Гбайт (74%)
Библиотека кодирования : XviD 1.2.1 (UTC 2008-12-04)
Аудио #1
Идентификатор : 1
Формат : AC-3
Формат/Информация : Audio Coding 3
Расширение режима : CM (complete main)
Параметр Endianness формата : Big
Идентификатор кодека : 2000
Продолжительность : 2 ч. 17 м.
Вид битрейта : Постоянный
Битрейт : 224 Кбит/сек
Каналы : 2 канала
Расположение каналов : Front: L R
Частота : 48,0 КГц
Битовая глубина : 16 бит
Метод сжатия : С потерями
Размер потока : 220 Мбайт (16%)
Выравнивание : Разделение по промежуткам
Продолжительность промежутка : 40 мс. (1,00 видеокадр)
Время предзагрузки промежутка : 500 мс.
Аудио #2
Идентификатор : 2
Формат : MPEG Audio
Версия формата : Version 1
Профиль формата : Layer 3
Идентификатор кодека : 55
Идентификатор кодека/Подсказка : MP3
Продолжительность : 2 ч. 17 м.
Вид битрейта : Постоянный
Битрейт : 128 Кбит/сек
Каналы : 2 канала
Частота : 48,0 КГц
Метод сжатия : С потерями
Размер потока : 126 Мбайт (9%)
Выравнивание : Соединение по промежуткам
Продолжительность промежутка : 40 мс. (1,00 видеокадр)
Время предзагрузки промежутка : 504 мс.
Библиотека кодирования : L3.99r
Настройки программы : -m s -V 4 -q 2 -lowpass 17 -b 128

-
-
Скачать

Скачать торрент! Один сумасшедший парень / Ekk Deewana Tha (Гаутам Менон / Gautham Menon) [2012, Индия, Мелодрама, DVDRip] VO (zamez) + Original

Как скачивать? · Что такое торрент? · Рейтинг и ограничения

Сайт не распространяет и не хранит электронные версии произведений, а лишь предоставляет доступ к создаваемому пользователями каталогу ссылок на торрент-файлы, которые содержат только списки хеш-сумм

[Профиль] [ЛС]
Показать сообщения:    
Ответить на тему

Текущее время: Сегодня 20:23

Часовой пояс: GMT + 4



Вы не можете начинать темы
Вы не можете отвечать на сообщения
Вы не можете редактировать свои сообщения
Вы не можете удалять свои сообщения
Вы не можете голосовать в опросах
Вы не можете прикреплять файлы к сообщениям
Вы не можете скачивать файлы