Меня зовут Кхан / My Name Is Khan (Каран Джохар / Karan Johar) [2010, Индия, драма, мелодрама, HDRip] MVO (1-ый канал ТВ)

Ответить на тему
 
Автор Сообщение

user ®

Стаж: 12 лет

Сообщений: 15124

Пост Пост: #1 от 19-Июл-2013 00:51

[Цитировать]

Меня зовут Кхан / My Name Is Khan
-Страна: Индия
Жанр: Драма, триллер
Год выпуска: 2010
Продолжительность: 02:41:31-Перевод: Профессиональный (многоголосый закадровый) - 1-ый канал ТВ
Русские субтитры: Нет-Режиссер: Каран Джохар / Karan Johar-В ролях: Каджол, Шахрукх Кхан, Джимми Шергил, Танай Чхеда, Кристофер Б. Дункан, Стефани Хакабай, Дженнифер Экхолс, Соня Джехан, Хармони Блоссом, Карл Марино, Шэйн Харпер, Шитал Менон-Описание: Ризван Kхан вырос в Мумбае в семье мусульман. В детстве ему был диагностирован «Синдром Аспергера» (форма высокофункционального аутизма, выражающаяся в слабой социальной адаптации). Повзрослевший Ризван переезжает в Сан-Франциско, где встречает индийскую мать-одиночку Мандиру, на которой впоследствии женится. Однако не все так гладко складывалось у Ризвана на пути в Америку...--Доп. информация: В отличии от дублированной версии, здесь фильм переведён полностью, без пропусков.-- --Качество видео: HDRip [исх. BDRip 1080р]
Формат видео: AVI-Видео: XviD, 688x288, 24 fps, 1162 Kbps
Аудио: MP3, 44.1 KHz, 2 ch, 128 Kbps--Сэмпл / Sample--Риппер, синхронизация звука: soso4eg-- -
-

Скриншот с названием:


-

Скриншоты:


-

MI

Общее
Полное имя : C:\INDIYA\[Релизы]\Menya.zovut.Khan.2010.BDRip.XviD_soso4eg.avi
Формат : AVI
Формат/Информация : Audio Video Interleave
Размер файла : 1,47 Гбайт
Продолжительность : 2 ч. 41 м.
Общий поток : 1299 Кбит/сек
Название фильма : Menya.zovut.Khan.2010.НDRip.XviD_soso4eg
Программа кодирования : VirtualDubMod 1.5.10.3 | www.virtualdub-fr.org || (build 2550/release)
Видео
Идентификатор : 0
Формат : MPEG-4 Visual
Профиль формата : Advanced Simple@L5
Параметр BVOP формата : 2
Параметр QPel формата : Нет
Параметр GMC формата : Без точки перехода
Параметр матрицы формата : Default (MPEG)
Идентификатор кодека : XVID
Идентификатор кодека/Подсказка : XviD
Продолжительность : 2 ч. 41 м.
Битрейт : 1162 Кбит/сек
Ширина : 688 пикселей
Высота : 288 пикселей
Соотношение сторон : 2,40:1
Частота кадров : 24,000 кадра/сек
Цветовое пространство : YUV
Субдискретизация насыщенности : 4:2:0
Битовая глубина : 8 бит
Тип развёртки : Прогрессивная
Метод сжатия : С потерями
Бит/(Пиксели*Кадры) : 0.244
Размер потока : 1,31 Гбайт (89%)
Библиотека кодирования : XviD 1.2.1 (UTC 2008-12-04)
Аудио
Идентификатор : 1
Формат : MPEG Audio
Версия формата : Version 1
Профиль формата : Layer 3
Идентификатор кодека : 55
Идентификатор кодека/Подсказка : MP3
Продолжительность : 2 ч. 41 м.
Вид битрейта : Постоянный
Битрейт : 128 Кбит/сек
Каналы : 2 канала
Частота : 44,1 КГц
Метод сжатия : С потерями
Размер потока : 148 Мбайт (10%)
Выравнивание : Разделение по промежуткам
Продолжительность промежутка : 42 мс. (1,00 видеокадр)
Время предзагрузки промежутка : 500 мс.

-
-
Скачать

Скачать торрент! Меня зовут Кхан / My Name Is Khan (Каран Джохар / Karan Johar) [2010, Индия, драма, мелодрама, HDRip] MVO (1-ый канал ТВ)

Как скачивать? · Что такое торрент? · Рейтинг и ограничения

Сайт не распространяет и не хранит электронные версии произведений, а лишь предоставляет доступ к создаваемому пользователями каталогу ссылок на торрент-файлы, которые содержат только списки хеш-сумм

[Профиль] [ЛС]
Показать сообщения:    
Ответить на тему

Текущее время: Сегодня 20:57

Часовой пояс: GMT + 4



Вы не можете начинать темы
Вы не можете отвечать на сообщения
Вы не можете редактировать свои сообщения
Вы не можете удалять свои сообщения
Вы не можете голосовать в опросах
Вы не можете прикреплять файлы к сообщениям
Вы не можете скачивать файлы