Красивый и упрямый / Tum Haseen Main Jawan (Бхаппи Сони / Bhappi Sonie) [1970, Индия, Драма, DVDRip] [Полная версия] MVO

Ответить на тему
 
Автор Сообщение

user ®

Стаж: 12 лет

Сообщений: 15092

Пост Пост: #1 от 19-Июл-2013 00:51

[Цитировать]

Красивый и упрямый / Tum Haseen Main Jawan / Полная версия
Страна: Индия
Жанр: Драма
Год выпуска: 1970
Продолжительность: 02:29:58
Перевод: Профессиональный (многоголосый закадровый)
Cубтитры: русские (только на вырезанные эпизоды)
Режиссер: Бхаппи Сони / Bhappi Sonie
В ролях: Дхармендра, Хема Малини, Рахендра Нат, Хелен, Дхумал, Сулочана Латкар, Мохан Чоти, Анвар Хуссэйн, Аньяли, Ифтекхар
Описание: Владелец огромного состояния умирает, оставляя завещание, которое устраивает всех, кроме его родственников. Потому что главным наследником объявлен внук миллионера, который вот-вот должен родиться. Больше всего это не нравится бессердечному и корыстному племяннику покойного. Он готов пойти на любое преступление, чтобы убрать со своего пути крошечного претендента на львиную долю наследства. Анурадха, тетушка младенца, решает спрятать ребенка у себя, но обстоятельства складываются так, что корзинка с внуком миллионера оказывается на грузовом корабле, где моряк-весельчак Сунил и его друзья-офицеры берутся опекать младенца.
Доп. информация: Релиз
Риппер, сведение звука - Алёна
Перевод субтитров - керелис
Сэмпл: http://multi-up.com/882719
Качество видео: DVDRip
Формат видео: AVI
Видео: XviD build 50, 688x512 (1.34:1), 29.970 fps, 1761 kbps avg
Аудио: AC3 Dolby Digita, 48 kHz, 2/0 (L,R) ch, 192.00 kbps avg

MediaInfo

General
Complete name : D:\Krasivyj.i.uprjamyj.1970.DVDRip.XviD.BwTorrents\Krasivyj.i.uprjamyj.1970.DVDRip.XviD.BwTorrents.avi
Format : AVI
Format/Info : Audio Video Interleave
Format profile : OpenDML
File size : 2.06 GiB
Duration : 2h 29mn
Overall bit rate : 1 962 Kbps
Writing application : VirtualDubMod 1.5.4.1 (build 2178/release)
Writing library : VirtualDubMod build 2178/release
Video
ID : 0
Format : MPEG-4 Visual
Format profile : AdvancedSimple@L5
Format settings, BVOP : Yes
Format settings, QPel : No
Format settings, GMC : No warppoints
Format settings, Matrix : Custom
Codec ID : XVID
Codec ID/Hint : XviD
Duration : 2h 29mn
Bit rate : 1 759 Kbps
Width : 688 pixels
Height : 512 pixels
Display aspect ratio : 4/3
Frame rate : 29.970 fps
Resolution : 24 bits
Colorimetry : 4:2:0
Scan type : Progressive
Bits/(Pixel*Frame) : 0.167
Stream size : 1.84 GiB (90%)
Writing library : XviD 1.2.1 (UTC 2008-12-04)
Audio
ID : 1
Format : AC-3
Format/Info : Audio Coding 3
Codec ID : 2000
Duration : 2h 29mn
Bit rate mode : Constant
Bit rate : 192 Kbps
Channel(s) : 2 channels
Channel positions : L R
Sampling rate : 48.0 KHz
Stream size : 206 MiB (10%)
Alignment : Split accross interleaves
Interleave, duration : 96 ms (2.88 video frames)
Interleave, preload duration : 96 ms
Language : Russian

Скриншоты

Скачать

Скачать торрент! Красивый и упрямый / Tum Haseen Main Jawan (Бхаппи Сони / Bhappi Sonie) [1970, Индия, Драма, DVDRip] [Полная версия] MVO

Как скачивать? · Что такое торрент? · Рейтинг и ограничения

Сайт не распространяет и не хранит электронные версии произведений, а лишь предоставляет доступ к создаваемому пользователями каталогу ссылок на торрент-файлы, которые содержат только списки хеш-сумм

[Профиль] [ЛС]

szaviola

Пол:

Стаж: 7 лет 5 месяцев

Сообщений: 8

Пост Пост: #2 от 24-Апр-2015 02:47 (спустя 1 год 9 месяцев)

[Цитировать]

((((СПАСИБО ФИЛЬМ СУПЕР!!!)))
[Профиль] [ЛС]
Показать сообщения:    
Ответить на тему

Текущее время: Сегодня 07:19

Часовой пояс: GMT + 4



Вы не можете начинать темы
Вы не можете отвечать на сообщения
Вы не можете редактировать свои сообщения
Вы не можете удалять свои сообщения
Вы не можете голосовать в опросах
Вы не можете прикреплять файлы к сообщениям
Вы не можете скачивать файлы