Под дулом пистолета / Thakshak (Говинд Нихалани / Govind Nihalani) [1999, Индия, боевик, драма, мелодрама, DVDRip] Dub

Ответить на тему
 
Автор Сообщение

user ®

Стаж: 12 лет

Сообщений: 15125

Пост Пост: #1 от 19-Июл-2013 00:51

[Цитировать]

Под дулом пистолета / Thakshak
Страна: Индия
Жанр: боевик, драма, мелодрама
Год выпуска: 1999
Продолжительность: 02:40:56
Перевод: Профессиональный (дублированный)
Cубтитры: нет
Оригинальная аудиодорожка: нет
Режиссер: Говинд Нихалани / Govind Nihalani
В ролях: Аджай Девган, Табу, Амриш Пури, Рахул Бозе, Говинд Намдео, Нетхра Рагхураман, Винит Кумар, Анупам Шийам, Атул Кумар, А.К. Хангал
Описание: Слабовольный Нахар Сингх (Амриш Пури), отец Ишана (Аджай Девган), связан с крестным отцом мафии, который решает заняться строительным бизнесом, чтобы отмыть криминальные деньги. Только после убийства отца и встречи с танцовщицей Суман (Таббу) Ишан осознает, что идет по острию ножа и что мафия не остановится ни перед чем, если на карту поставлены огромные деньги. Он решает нанести удар первым...
Сэмпл: http://multi-up.com/885796
Качество видео: DVDRip
Формат видео: AVI
Видео: 704x304 (2.32:1), 23.976 fps, DivX Codec 6.8.5/6.9.1 ~819 kbps avg, 0.16 bit/pixel
Аудио: 48 kHz, AC3 Dolby Digital, 3/2 (L,C,R,l,r) + LFE ch, ~384 kbps

MediaInfo

General
Complete name : C:\Users\Marina\Desktop\Раздача\1999_Под дулом пистолета _Thakshak\1999_Под дулом пистолета_Thakshak.avi
Format : AVI
Format/Info : Audio Video Interleave
File size : 1.36 GiB
Duration : 2h 40mn
Overall bit rate : 1 213 Kbps
Movie name : Thakshak (1999)
Copyright : для портала www.uralmix.ru
Video
ID : 0
Format : MPEG-4 Visual
Format settings, BVOP : Yes
Format settings, QPel : No
Format settings, GMC : No warppoints
Format settings, Matrix : Default (H.263)
Muxing mode : Packed bitstream
Codec ID : DX50
Codec ID/Hint : DivX 5
Duration : 2h 40mn
Bit rate : 820 Kbps
Width : 704 pixels
Height : 304 pixels
Display aspect ratio : 2.35:1
Frame rate : 23.976 fps
Resolution : 8 bits
Colorimetry : 4:2:0
Scan type : Progressive
Bits/(Pixel*Frame) : 0.160
Stream size : 944 MiB (68%)
Writing library : DivX 6.8.5 (UTC 2009-08-20)
Audio
ID : 1
Format : AC-3
Format/Info : Audio Coding 3
Codec ID : 2000
Duration : 2h 40mn
Bit rate mode : Constant
Bit rate : 384 Kbps
Channel(s) : 6 channels
Channel positions : Front: L C R, Surround: L R, LFE
Sampling rate : 48.0 KHz
Stream size : 442 MiB (32%)
Alignment : Split accross interleaves
Interleave, duration : 42 ms (1.00 video frame)
Interleave, preload duration : 500 ms
Language : Не определен

Скриншот c названием фильма

Скриншоты



Скачать

Скачать торрент! Под дулом пистолета / Thakshak (Говинд Нихалани / Govind Nihalani) [1999, Индия, боевик, драма, мелодрама, DVDRip] Dub

Как скачивать? · Что такое торрент? · Рейтинг и ограничения

Сайт не распространяет и не хранит электронные версии произведений, а лишь предоставляет доступ к создаваемому пользователями каталогу ссылок на торрент-файлы, которые содержат только списки хеш-сумм

[Профиль] [ЛС]
Показать сообщения:    
Ответить на тему

Текущее время: Сегодня 12:56

Часовой пояс: GMT + 4



Вы не можете начинать темы
Вы не можете отвечать на сообщения
Вы не можете редактировать свои сообщения
Вы не можете удалять свои сообщения
Вы не можете голосовать в опросах
Вы не можете прикреплять файлы к сообщениям
Вы не можете скачивать файлы