Трамвай в Москве (Жан-Люк Леон) [1995, лирическая киноновелла, VHSRip]

Ответить на тему
 
Автор Сообщение

user ®

Стаж: 7 лет 7 месяцев

Сообщений: 20008

Пост Пост: #1 от 17-Июл-2013 11:16

[Цитировать]

Трамвай в Москве / Un tramway a Moscou

Жанр: лирическая киноновелла
Производство: Мосфильм / SEPT ARTE, Россия — Франция
Год выпуска: 1995
Продолжительность: 0:51:52
Режиссёр: Жан-Люк Леон
Сценарий: Жан-Люк Леон, Эмиль Брагинский
Операторы: Жан-Люк Леон, Валентин Пиганов
В ролях: Николай Пастухов, Людмила Гаврилова, Михаил Глузский, Галина Стаханова, Евгений Миронов, Мария Виноградова, Валерий Николаев-Описание: Начало 90-х годов. По осенней Москве курсирует трамвай "Аннушка", это последний рейс легендарного маршрута, который хотят закрыть за ненадобностью. Нервничает вагоновожатая Лиза: ее сына могут забрать в армию. Ветеран Борис ее успокаивает. Он любит кататься на трамвае, вступая в откровенные разговоры с незнакомыми пассажирами...-Качество видео: VHSRip
Формат видео: AVI
Видео: Xvid, 704x528, 4:3, 1690 Kbps, 25.00 fps
Аудио: Dolby AC3, 192kbps, 48000Hz stereo, 2 channels

MediaInfo

ОбщееПолное имя : D:\Фильмы\Отечественные\Трамвай в Москве, 1995\Трамвай в Москве.aviФормат : AVIФормат/Информация : Audio Video InterleaveРазмер файла : 702 МбайтПродолжительность : 51 м.Общий поток : 1891 Кбит/секБиблиотека кодирования : VirtualDub build 32507/release
ВидеоИдентификатор : 0Формат : MPEG-4 VisualПрофиль формата : Advanced Simple@L5Параметр BVOP формата : 2Параметр QPel формата : НетПараметр GMC формата : Без точки переходаПараметр матрицы формата : Default (H.263)Режим смешивания : Сжатый битовый потокИдентификатор кодека : XVIDИдентификатор кодека/Подсказка : XviDПродолжительность : 51 м.Битрейт : 1690 Кбит/секШирина : 704 пикселяВысота : 528 пикселейСоотношение сторон : 4:3Частота кадров : 25,000 кадров/секЦветовое пространство : YUVСубдискретизация насыщенности : 4:2:0Битовая глубина : 8 битТип развёртки : ПрогрессивнаяМетод сжатия : С потерямиБит/(Пиксели*Кадры) : 0.182Размер потока : 627 Мбайт (89%)Библиотека кодирования : XviD 64
АудиоИдентификатор : 1Формат : AC-3Формат/Информация : Audio Coding 3Расширение режима : CM (complete main)Параметр Endianness формата : BigИдентификатор кодека : 2000Продолжительность : 51 м.Вид битрейта : ПостоянныйБитрейт : 192 Кбит/секКаналы : 2 каналаРасположение каналов : Front: L RЧастота : 48,0 КГцБитовая глубина : 16 битМетод сжатия : С потерямиРазмер потока : 71,2 Мбайт (10%)Выравнивание : Соединение по промежуткамПродолжительность промежутка : 40 мс. (1,00 видеокадр)Время предзагрузки промежутка : 512 мс.

Скриншоты

Скачать

Скачать торрент!

Как скачивать? · Что такое торрент? · Рейтинг и ограничения

Сайт не распространяет и не хранит электронные версии произведений, а лишь предоставляет доступ к создаваемому пользователями каталогу ссылок на торрент-файлы, которые содержат только списки хеш-сумм

[Профиль] [ЛС]
Показать сообщения:    
Ответить на тему

Текущее время: Сегодня 23:46

Часовой пояс: GMT + 4



Вы не можете начинать темы
Вы не можете отвечать на сообщения
Вы не можете редактировать свои сообщения
Вы не можете удалять свои сообщения
Вы не можете голосовать в опросах
Вы не можете прикреплять файлы к сообщениям
Вы не можете скачивать файлы