Перегон (Александр Рогожкин) [2006, трагикомедия, военный, DVDRip]

Ответить на тему
 
Автор Сообщение

user ®

Стаж: 7 лет 7 месяцев

Сообщений: 20008

Пост Пост: #1 от 17-Июл-2013 11:16

[Цитировать]

Перегон Жанр: драма, военный
Год выпуска: 2006
Продолжительность: 02:19:50
Режиссер: Александр Рогожкин
В ролях: Алексей Серебряков, Даниил Страхов, Анастасия Немоляева, Светлана Строганова, Юрий Ицков, Юрий Орлов, Кирилл Ульянов, Сергей Константинов, Алексей Петров, Роман Кельчин, Иван Прилль, Олег Малкин, Артем Волобуев, Степан Абрамов, Андрей Шибаршин, Дмитрий Лысенков, Грант Петросян, Захар Ронжин, Сергей Медведев, Артем Бордовский, Михаил Сиворин, Кэтрин Инноченте, Сара Маргарет Ратли, Сара Булли, Кристофер Делсман, Геннадий Алексеев, Нэйтан Томас Уайт, Евгений Качалов, Руслан Смирнов, Андрей Фомин, Александр Орловский, Анна Рудь, Анатолий Устинов, Сергей Вензелев, Екатерина Макарова, Сергей Павлов
Описание: 1943 год, Чукотка, специальный транзитный аэродром. Жизнь русских и американских летчиков, которые через Аляску и Сибирь перегоняют на фронт американские истребители "Аэрокобра". Это история русских, американцев, аборигенов Крайнего Севера, история мужчины и женщины на войне. Любовь русского офицера и американской летчицы Мэри Маклейн сталкивается с языковыми и культурными барьерами, из-за чего возникает множество курьезных и нелепых, а иногда и трагических ситуаций. А рядом с полярным аэродромом существует другой мир - мир местных эскимосов, живущих далекой от войны жизнью. Правда солдат непонятна эскимосу, ведь, с его точки зрения, человек стреляет в зверя, чтобы съесть его, или получить шкуру, из которой можно сделать одежду, или лодку. Тогда зачем он стреляет в другого человека, если не собирается его есть?..
Доп. информация: Рип в 2 прогона, изготавливался около 4 часов при помощи XviD4PSP. Убрано: субтитры, полосы DVD.
Семпл
Качество видео: DVDRip
Формат видео: AVI
Видео: 720x304 (2.37:1), 25 fps, XviD build 50 ~569 kbps avg, 0.10 bit/pixel
Аудио: 48 kHz, MPEG Layer 3, 2 ch, ~128.00 kbps avg

MI

Полное имя : D:\Торрент\Перегон ави 700 рип\Перегон.avi
Формат : AVI
Формат/Информация : Audio Video Interleave
Размер файла : 708 Мбайт
Продолжительность : 2 ч. 19 м.
Общий поток : 708 Кбит/сек
Программа кодирования : VirtualDubMod 1.5.10.3 (build 2550/release)
Библиотека кодирования : VirtualDubMod build 2550/release
Видео
Идентификатор : 0
Формат : MPEG-4 Visual
Профиль формата : Advanced Simple@L5
Параметр BVOP формата : 2
Параметр QPel формата : Нет
Параметр GMC формата : Без точки перехода
Параметр матрицы формата : Default (MPEG)
Идентификатор кодека : XVID
Идентификатор кодека/Подсказка : XviD
Продолжительность : 2 ч. 19 м.
Битрейт : 570 Кбит/сек
Ширина : 720 пикселей
Высота : 304 пикселя
Соотношение сторон : 2,35:1
Частота кадров : 25,000 кадров/сек
Цветовое пространство : YUV
Субдискретизация насыщенности : 4:2:0
Битовая глубина : 8 бит
Тип развёртки : Прогрессивная
Метод сжатия : С потерями
Бит/(Пиксели*Кадры) : 0.104
Размер потока : 570 Мбайт (81%)
Библиотека кодирования : XviD 1.2.1 (UTC 2008-12-04)
Аудио
Идентификатор : 1
Формат : MPEG Audio
Версия формата : Version 1
Профиль формата : Layer 3
Идентификатор кодека : 55
Идентификатор кодека/Подсказка : MP3
Продолжительность : 2 ч. 19 м.
Вид битрейта : Постоянный
Битрейт : 128 Кбит/сек
Каналы : 2 канала
Частота : 48,0 КГц
Метод сжатия : С потерями
Размер потока : 128 Мбайт (18%)
Выравнивание : Соединение по промежуткам
Продолжительность промежутка : 40 мс. (1,00 видеокадр)
Время предзагрузки промежутка : 504 мс.
Библиотека кодирования : LAME3.99r
Настройки программы : -m s -V 4 -q 2 -lowpass 17 -b 128
Скачать

Скачать торрент!

Как скачивать? · Что такое торрент? · Рейтинг и ограничения

Сайт не распространяет и не хранит электронные версии произведений, а лишь предоставляет доступ к создаваемому пользователями каталогу ссылок на торрент-файлы, которые содержат только списки хеш-сумм

[Профиль] [ЛС]
Показать сообщения:    
Ответить на тему

Текущее время: Сегодня 05:06

Часовой пояс: GMT + 4



Вы не можете начинать темы
Вы не можете отвечать на сообщения
Вы не можете редактировать свои сообщения
Вы не можете удалять свои сообщения
Вы не можете голосовать в опросах
Вы не можете прикреплять файлы к сообщениям
Вы не можете скачивать файлы