Шуб–баба Люба! (Максим Воронков) [2000, комедия, DVB]

Ответить на тему
 
Автор Сообщение

user ®

Стаж: 7 лет 7 месяцев

Сообщений: 20008

Пост Пост: #1 от 17-Июл-2013 11:16

[Цитировать]

Шуб–баба Люба!
Жанр: комедия
Год выпуска: 2000
Продолжительность: 01:19:24
Режиссёр: Максим Воронков
В ролях: Лариса Удовиченко, Виктор Степанов, Петр Ульянов, Виктор Борцов, Елена Бушуева, Сергей Баталов, Сергей Матюхин, Татьяна Кравченко, Маша Удовиченко, Илья Рутберг, Виктор Борцов, Владимир Пермяков, Кирилл Гусев, Владислав Рощин, Олег Булыгин, Виталий Альшанский, Галина Стаханова
Описание: К старшекласснику Володе Сидорову приезжает из Надыма любимый дед Егор Кузьмич и привозит в подарок кристалл размером с голову младенца. Внук и дед относят кристалл в скупку и запрашивают за него триста. И им отваливают триста...

Семпл: http://multi-up.com/868289
Качество видео: DVB
Формат видео: MPEG-PS
Видео: MPEG2 Video, 720x576 (4:3), 25 fps, 3384 Kbps, 0.33 bit/pixel
Аудио: MPEG Audio, 48 kHz, 2 ch, 192 kbps

MediaInfo

General
Complete name : C:\Шуб – баба Люба!_2000_DVB.mpg
Format : MPEG-PS
File size : 2.02 GiB
Duration : 1h 19mn
Overall bit rate mode : Variable
Overall bit rate : 3 648 Kbps
Video
ID : 224 (0xE0)
Format : MPEG Video
Format version : Version 2
Format profile : Main@Main
Format settings, BVOP : Yes
Format settings, Matrix : Custom
Format settings, GOP : M=3, N=12
Duration : 1h 19mn
Bit rate mode : Variable
Bit rate : 3 384 Kbps
Maximum bit rate : 15.0 Mbps
Width : 720 pixels
Height : 576 pixels
Display aspect ratio : 4:3
Frame rate : 25.000 fps
Standard : PAL
Color space : YUV
Chroma subsampling : 4:2:0
Bit depth : 8 bits
Scan type : Interlaced
Scan order : Top Field First
Compression mode : Lossy
Bits/(Pixel*Frame) : 0.326
Time code of first frame : 00:00:00:00
Time code source : Group of pictures header
Stream size : 1.88 GiB (93%)
Audio
ID : 192 (0xC0)
Format : MPEG Audio
Format version : Version 1
Format profile : Layer 2
Duration : 1h 19mn
Bit rate mode : Constant
Bit rate : 192 Kbps
Channel(s) : 2 channels
Sampling rate : 48.0 KHz
Compression mode : Lossy
Stream size : 109 MiB (5%)

Bitrate Viewer

Скриншот c названием фильма

Скриншоты

Скачать

Скачать торрент!

Как скачивать? · Что такое торрент? · Рейтинг и ограничения

Сайт не распространяет и не хранит электронные версии произведений, а лишь предоставляет доступ к создаваемому пользователями каталогу ссылок на торрент-файлы, которые содержат только списки хеш-сумм

[Профиль] [ЛС]
Показать сообщения:    
Ответить на тему

Текущее время: Сегодня 13:40

Часовой пояс: GMT + 4



Вы не можете начинать темы
Вы не можете отвечать на сообщения
Вы не можете редактировать свои сообщения
Вы не можете удалять свои сообщения
Вы не можете голосовать в опросах
Вы не можете прикреплять файлы к сообщениям
Вы не можете скачивать файлы