Луч на повороте (Сергей Комаров) [2010, комедия, SATRip]

Ответить на тему
 
Автор Сообщение

user ®

Стаж: 7 лет 7 месяцев

Сообщений: 20008

Пост Пост: #1 от 17-Июл-2013 11:16

[Цитировать]

Луч на повороте
Жанр: комедия, криминал
Год выпуска: 2010
Продолжительность: 01:29:45
Режиссёр: Сергей Комаров
В ролях: Владимир Яглыч, Тимофей Трибунцев, Анна Назарова, Марина Голуб, Юрий Ваксман, Александр Чмелёв, Виктор Григорюк, Василий Малов, Роман Хан, Георгий Эльнатанов, Дмитрий Лавров, Константин Силаков, Юрий Иванов, Евгений Мундум, Михаил Левченко, Елена Сусанина, Анна Бачалова, Юлия Знакомцева, Марина Карабанова, Людмила Томилина, Ирина Сидорова
Описание: Молодой парень, обучающийся в консерватории на оперного певца, за драку попадает в тюрьму. Его кумир - Лучано Паваротти, но сокамерники, не разбирающиеся в классической музыке, услышали вместо имени "луч на повороте". Через два года он выходит из тюрьмы вместе со своим приятелем, попавшим туда по недоразумению. На свободе они начинают искать применение своим новым тюремным знаниям. Но им почему-то всё время мешает врождённая порядочность...
Качество видео: SATRip
Формат видео: AVI
Видео: 704x400 (16:9), 25 fps, XviD 1.2.1, 949 Kbps, 0.14 bpp
Аудио: MP3, 48.0 kHz, 2 ch, 160 kbps

MediaInfo

General
Complete name : Луч на повороте.avi
Format : AVI
Format/Info : Audio Video Interleave
File size : 718 MiB
Duration : 1h 29mn
Overall bit rate : 1 119 Kbps
Writing library : VirtualDub build 32842/release
Video
ID : 0
Format : MPEG-4 Visual
Format profile : Advanced Simple@L5
Format settings, BVOP : Yes
Format settings, QPel : No
Format settings, GMC : No warppoints
Format settings, Matrix : Default (H.263)
Codec ID : XVID
Codec ID/Hint : XviD
Duration : 1h 29mn
Bit rate : 949 Kbps
Width : 704 pixels
Height : 400 pixels
Display aspect ratio : 16:9
Frame rate : 25.000 fps
Color space : YUV
Chroma subsampling : 4:2:0
Bit depth : 8 bits
Scan type : Progressive
Bits/(Pixel*Frame) : 0.135
Stream size : 609 MiB (85%)
Writing library : XviD 1.2.1 (UTC 2008-12-04)
Audio
ID : 1
Format : MPEG Audio
Format version : Version 1
Format profile : Layer 3
Mode : Joint stereo
Codec ID : 55
Codec ID/Hint : MP3
Duration : 1h 29mn
Bit rate mode : Constant
Bit rate : 160 Kbps
Channel(s) : 2 channels
Sampling rate : 48.0 KHz
Stream size : 103 MiB (14%)
Alignment : Split accross interleaves
Interleave, duration : 40 ms (1.00 video frame)
Interleave, preload duration : 500 ms

Скриншот c названием фильма

Скриншоты

Скачать

Скачать торрент!

Как скачивать? · Что такое торрент? · Рейтинг и ограничения

Сайт не распространяет и не хранит электронные версии произведений, а лишь предоставляет доступ к создаваемому пользователями каталогу ссылок на торрент-файлы, которые содержат только списки хеш-сумм

[Профиль] [ЛС]
Показать сообщения:    
Ответить на тему

Текущее время: Сегодня 08:06

Часовой пояс: GMT + 4



Вы не можете начинать темы
Вы не можете отвечать на сообщения
Вы не можете редактировать свои сообщения
Вы не можете удалять свои сообщения
Вы не можете голосовать в опросах
Вы не можете прикреплять файлы к сообщениям
Вы не можете скачивать файлы