Свадьба (Павел Лунгин) [2000, мелодрама, трагикомедия, DVDRip]

Ответить на тему
 
Автор Сообщение

user ®

Стаж: 7 лет 7 месяцев

Сообщений: 20008

Пост Пост: #1 от 17-Июл-2013 11:15

[Цитировать]

Свадьба / La Noce / Die Hochzeitsgesellschaft
Страна: Россия, Франция, Германия, Италия
Жанр: мелодрама, трагикомедия
Год выпуска: 2000
Продолжительность: 01:48:45
Режиссёр: Павел Лунгин
В ролях: Марат Башаров, Мария Миронова, Андрей Панин, Александр Семчев, Владимир Симонов, Александр Робак, Мария Голубкина, Наталья Коляканова, Елена Новикова, Владимир Кашпур, Владимир Сальников, Галина Петрова, Марина Голуб, Илья Рутберг, Надежда Маркина, Павел Поймалов, Валерий Семин, Елена Верховская, Олег Есауленко, Алексей Миронов, Алексей Салпанов, Михаил Матвеев, Даниил Белых, Андрей Бронников, Нина Салкова, Кирилл Дайнеко, Анна Штукатурова, Александр Вешриков, Любовь Спирихина, Янис Зариньш, Ильхам Ханбудагов, Людмила Егорова, Игорь Небольсин, Владимир Епископосян, Валерий Маркин
Описание: Молодая девушка Таня возвращается из Москвы после пятилетнего отсутствия в родной небольшой шахтерский городок Липки. Всё вокруг ей знакомо с детства: дома и их жители, подруги и простой парень Мишка, любящий её ещё со школы. На танцах, хлебнув водки для храбрости, Таня пообещала Мишке подбросить монетку и, если выпадет орёл, выйти за него замуж…
Доп. информация:
Сценарий: Павел Лунгин, Александр Галин
Оператор: Александр Буров
Художник: Илья Амурский
Композитор: Владимир Чекасин
Награды: специальный приз жюри Каннского кинофестиваля в номинации "За лучший актерский ансамбль" (2000); приз за лучший игровой фильм (Павел Лунгин) на КФ «Окно в Европу» (Выборг, 2000); главный приз "Аврора" (Павел Лунгин) на МКФ в Тромсё (2000); премия «Золотой Овен» (2000) за лучшую мужскую роль второго плана (Андрей Панин); приз за лучшую мужскую роль второго плана (Андрей Панин) на КФ «Созвездие» (2001)
Ограничения на просмотр: зрителям, достигшим 16 лет.

Афиши

Об исходнике и звуке

Исходный DVD, как и многие другие издания отечественных фильмов в формате NTSC, представляет собой весьма некачественный трансфер из PAL в NTSC с переменным порядком полей и дублированными кадрами (также видео сильно зашумлено). Обычный деинтерлейс и обратный телесин в таких случаях не помогают, спасает только снижение частоты кадров до исходных 25 fps, что и проделано в данном рипе.
Имеющаяся в исходнике 6-канальная аудиодорожка - "дутая": все диалоги отчетливо слышны не только в центральном, но и во всех фронтальных и тыловых каналах.

Поэтому для данного рипа она переконвертирована в стерео (использованные программы - PgsDemux, BeSweet, Adobe Audition 3.0, Sonic Foudry Soft Encode).
Качество видео: DVDRip
Формат видео: AVI
Видео: 688x416 (1.65:1), 25 fps, XviD build 73, 1735 kbps avg, 0.24 bit/pixel
Аудио: 48 kHz, AC3 Dolby Digital, 2/0 (L,R) ch, 192 kbps

MediaInfo

Полное имя : F:\New\Svadba.avi
Формат : AVI
Формат/Информация : Audio Video Interleave
Размер файла : 1,47 Гбайт
Продолжительность : 1 ч. 48 м.
Общий поток : 1937 Кбит/сек
Программа кодирования : VirtualDubMod 1.5.10.3 (build 2550/release)
Библиотека кодирования : VirtualDubMod build 2550/release
Видео
Идентификатор : 0
Формат : MPEG-4 Visual
Профиль формата : Advanced Simple@L5
Параметр BVOP формата : 1
Параметр QPel формата : Нет
Параметр GMC формата : Без точки перехода
Параметр матрицы формата : Выборочная
Идентификатор кодека : DX50
Идентификатор кодека/Подсказка : DivX 5
Продолжительность : 1 ч. 48 м.
Битрейт : 1735 Кбит/сек
Ширина : 688 пикселей
Высота : 416 пикселей
Соотношение сторон : 1,654
Частота кадров : 25,000 кадров/сек
Цветовое пространство : YUV
Субдискретизация насыщенности : 4:2:0
Битовая глубина : 8 бит
Тип развёртки : Прогрессивная
Метод сжатия : С потерями
Бит/(Пиксели*Кадры) : 0.242
Размер потока : 1,32 Гбайт (90%)
Библиотека кодирования : XviD 73
Аудио
Идентификатор : 1
Формат : AC-3
Формат/Информация : Audio Coding 3
Расширение режима : CM (complete main)
Параметр Endianness формата : Big
Идентификатор кодека : 2000
Продолжительность : 1 ч. 48 м.
Вид битрейта : Постоянный
Битрейт : 192 Кбит/сек
Каналы : 2 канала
Расположение каналов : Front: L R
Частота : 48,0 КГц
Битовая глубина : 16 бит
Метод сжатия : С потерями
Размер потока : 149 Мбайт (10%)
Выравнивание : Разделение по промежуткам
Продолжительность промежутка : 40 мс. (1,00 видеокадр)
Время предзагрузки промежутка : 500 мс.

Скриншоты

Скачать

Скачать торрент!

Как скачивать? · Что такое торрент? · Рейтинг и ограничения

Сайт не распространяет и не хранит электронные версии произведений, а лишь предоставляет доступ к создаваемому пользователями каталогу ссылок на торрент-файлы, которые содержат только списки хеш-сумм

[Профиль] [ЛС]
Показать сообщения:    
Ответить на тему

Текущее время: Сегодня 07:51

Часовой пояс: GMT + 4



Вы не можете начинать темы
Вы не можете отвечать на сообщения
Вы не можете редактировать свои сообщения
Вы не можете удалять свои сообщения
Вы не можете голосовать в опросах
Вы не можете прикреплять файлы к сообщениям
Вы не можете скачивать файлы