Сага: Тень Кабала / SAGA - Curse of the Shadow (Джон Лойд / John Lyde) [2013, США, Фэнтази, боевик, BDRip-AVC] DVO + Sub (Rus, Eng, Ger)

Ответить на тему
 
Автор Сообщение

user ®

Стаж: 7 лет 7 месяцев

Сообщений: 20008

Пост Пост: #1 от 17-Июл-2013 09:23

[Цитировать]

Сага: Тень Кабала / SAGA - Curse of the Shadow- Страна: США
Жанр: фэнтази, боевик
Год выпуска: 2013
Продолжительность: 01:45:19-Перевод: Любительский (двухголосый закадровый)
Cубтитры: русские (forced (на речь орков)), английские, немецкие, немецкие (forced (на речь орков))-Режиссер: Джон Лойд / John Lyde
В ролях: Даниэль Чачран (Danielle Chuchran), Ричард МакУильямс (Richard McWilliams), Пол Хант (Paul Hunt), Джеймс С. Моррис (James C. Morris), Ив Мауро (Eve Mauro), Дэнни Джеймс (Danny James), Спенсер Барбер (Spencer Barber) и др.-Описание: Война богов разорила землю, и оставшиеся в живых люди в отчаянии заключили соглашение с эльфами и гномами. Это положило конец войне, заставив орков и темных эльфов отступить в глубь пустоши. Однако данное соглашение, восстановив цивилизацию, возродило и древнее Зло. В темных углах таверн и в мрачных пещерах стал слышен шепот заговорщиков, известных как Тень…-Качество видео: BDRip-AVC | исх. SAGA.Curse.of.the.Shadow.2013.BDRemux.1080p.mkv | Сэмпл
Формат видео: MKV-Видео: 928x522 (16:9), 23.976 fps, AVC ~1 789 kbps avg, 0.154 bit/pixel
Аудио: 48 kHz, AC-3, 2 channels, ~192 kbps | Любительский (двухголосый закадровый)-Автор рипа: Fredd Kruger aka Freddy Krueger-

MediaInfo | x264

Код:
General
Unique ID : 253750929464119777197329252889477400553 (0xBEE6A6BEAF0EB742B130BD9B492647E9)
Complete name : D:\Фильмы\Рипы\SAGA.Curse.of.the.Shadow.2013.BDRip-AVC.by.Freddy Krueger.mkv
Format : Matroska
Format version : Version 2
File size : 1.46 GiB
Duration : 1h 45mn
Overall bit rate : 1 983 Kbps
Movie name : Arifis
Encoded date : UTC 2013-06-28 07:26:05
Writing application : mkvmerge v5.0.1 ('Es ist Sommer') built on Nov 6 2011 16:23:40
Writing library : libebml v1.2.2 + libmatroska v1.3.0
Video
ID : 1
Format : AVC
Format/Info : Advanced Video Codec
Format profile : High@L4.0
Format settings, CABAC : Yes
Format settings, ReFrames : 16 frames
Codec ID : V_MPEG4/ISO/AVC
Duration : 1h 45mn
Bit rate : 1 789 Kbps
Width : 928 pixels
Height : 522 pixels
Display aspect ratio : 16:9
Frame rate mode : Constant
Frame rate : 23.976 fps
Color space : YUV
Chroma subsampling : 4:2:0
Bit depth : 8 bits
Scan type : Progressive
Bits/(Pixel*Frame) : 0.154
Stream size : 1.29 GiB (88%)
Writing library : x264 core 119 r2106 07efeb4
Encoding settings : cabac=1 / ref=16 / deblock=1:-2:-1 / analyse=0x3:0x133 / me=umh / subme=11 / psy=1 / psy_rd=1.05:0.10 / mixed_ref=1 / me_range=48 / chroma_me=1 / trellis=2 / 8x8dct=1 / cqm=0 / deadzone=21,11 / fast_pskip=0 / chroma_qp_offset=-5 / threads=12 / sliced_threads=0 / nr=0 / decimate=1 / interlaced=0 / bluray_compat=0 / constrained_intra=0 / bframes=9 / b_pyramid=2 / b_adapt=2 / b_bias=0 / direct=3 / weightb=1 / open_gop=0 / weightp=2 / keyint=250 / keyint_min=23 / scenecut=40 / intra_refresh=0 / rc_lookahead=60 / rc=2pass / mbtree=1 / bitrate=1789 / ratetol=1.0 / qcomp=0.60 / qpmin=0 / qpmax=69 / qpstep=4 / cplxblur=20.0 / qblur=0.5 / ip_ratio=1.40 / aq=1:1.00
Default : Yes
Forced : No
Audio
ID : 2
Format : AC-3
Format/Info : Audio Coding 3
Mode extension : CM (complete main)
Format settings, Endianness : Big
Codec ID : A_AC3
Duration : 1h 45mn
Bit rate mode : Constant
Bit rate : 192 Kbps
Channel(s) : 2 channels
Channel positions : Front: L R
Sampling rate : 48.0 KHz
Bit depth : 16 bits
Compression mode : Lossy
Stream size : 145 MiB (10%)
Default : Yes
Forced : No
Text #1
ID : 3
Format : UTF-8
Codec ID : S_TEXT/UTF8
Codec ID/Info : UTF-8 Plain Text
Title : Forced Rus
Language : Russian
Default : Yes
Forced : No
Text #2
ID : 4
Format : UTF-8
Codec ID : S_TEXT/UTF8
Codec ID/Info : UTF-8 Plain Text
Title : Full Eng
Language : English
Default : No
Forced : No
Text #3
ID : 5
Format : UTF-8
Codec ID : S_TEXT/UTF8
Codec ID/Info : UTF-8 Plain Text
Title : Full Ger
Language : German
Default : No
Forced : No
Text #4
ID : 6
Format : UTF-8
Codec ID : S_TEXT/UTF8
Codec ID/Info : UTF-8 Plain Text
Title : Forced Ger
Language : German
Default : No
Forced : No

Код:
x264 [info]: frame I:1237 Avg QP:15.60 size: 91019
x264 [info]: frame P:33932 Avg QP:19.73 size: 21908
x264 [info]: frame B:116358 Avg QP:22.56 size: 4788
x264 [info]: consecutive B-frames: 2.4% 2.3% 8.6% 26.4% 18.5% 27.9% 7.2% 5.1% 0.8% 0.7%
x264 [info]: mb I I16..4: 9.9% 61.9% 28.2%
x264 [info]: mb P I16..4: 1.5% 10.1% 1.4% P16..4: 31.3% 30.3% 10.6% 4.3% 0.8% skip: 9.8%
x264 [info]: mb B I16..4: 0.3% 1.3% 0.2% B16..8: 32.2% 13.6% 2.2% direct: 3.5% skip:46.7% L0:41.9% L1:46.8% BI:11.3%
x264 [info]: 8x8 transform intra:74.3% inter:55.3%
x264 [info]: direct mvs spatial:98.7% temporal:1.3%
x264 [info]: coded y,uvDC,uvAC intra: 75.1% 72.6% 46.3% inter: 14.8% 12.2% 3.7%
x264 [info]: i16 v,h,dc,p: 20% 13% 7% 60%
x264 [info]: i8 v,h,dc,ddl,ddr,vr,hd,vl,hu: 7% 7% 6% 9% 14% 13% 14% 13% 16%
x264 [info]: i4 v,h,dc,ddl,ddr,vr,hd,vl,hu: 9% 7% 7% 9% 15% 14% 14% 11% 15%
x264 [info]: i8c dc,h,v,p: 44% 24% 16% 15%
x264 [info]: Weighted P-Frames: Y:5.0% UV:2.4%
x264 [info]: ref P L0: 51.1% 12.1% 13.3% 5.9% 4.2% 3.2% 2.6% 1.5% 1.2% 1.1% 0.9% 0.8% 0.7% 0.6% 0.5% 0.3%
x264 [info]: ref B L0: 81.8% 8.6% 3.7% 1.6% 1.1% 0.8% 0.7% 0.4% 0.3% 0.3% 0.2% 0.2% 0.2% 0.1% 0.1%
x264 [info]: ref B L1: 94.0% 6.0%
x264 [info]: kb/s:1788.74
x264 [total]: encoded 151527 frames, 17.13 fps, 1788.74 kb/s

Скриншоты

Скачать

Скачать торрент!

Как скачивать? · Что такое торрент? · Рейтинг и ограничения

Сайт не распространяет и не хранит электронные версии произведений, а лишь предоставляет доступ к создаваемому пользователями каталогу ссылок на торрент-файлы, которые содержат только списки хеш-сумм

[Профиль] [ЛС]
Показать сообщения:    
Ответить на тему

Текущее время: Сегодня 22:15

Часовой пояс: GMT + 4



Вы не можете начинать темы
Вы не можете отвечать на сообщения
Вы не можете редактировать свои сообщения
Вы не можете удалять свои сообщения
Вы не можете голосовать в опросах
Вы не можете прикреплять файлы к сообщениям
Вы не можете скачивать файлы