Слабые проблески / Rushlights (Энтони Стац / Antoni Stutz) [2013, США, триллер, мелодрама, криминал, WEB-DLRip] DVO

Ответить на тему
 
Автор Сообщение

user ®

Стаж: 7 лет 7 месяцев

Сообщений: 20008

Пост Пост: #1 от 17-Июл-2013 09:23

[Цитировать]

Слабые проблескиRushlights- Страна: США
Жанр: триллер, мелодрама, криминал
Год выпуска: 2013
Продолжительность: 01:36:19-Перевод: Профессиональный (двухголосый)
Оригинальная аудиодорожка: английский
Субтитры: нет
Режиссер: Энтони Стац / Antoni Stutz
В ролях: Бо Бриджес, Эйдан Куинн, Джош Хендерсон, Хейли Уэбб, Джордан Бриджес, Лорна Рэвер, Джоэль МакКиннон Миллер, Криспиан Белфрадж, Филип Ленковски, Эйлин Грубба, Теренс Берни Хайнс, Нестор Аарон Абсера-Описание: Парочка молодых влюбленных из Лос-Анджелеса – Билли и Сара – решают провернуть небольшую аферу с целью обогащения. Для этого они отправляются в маленький городок в Техасе, чтобы обманным путем получить наследство погибшего парня, который якобы был их товарищем. Однако здесь им предстоит оказаться в кошмарной атмосфере жадности и предательства, когда они столкнутся с представителями местного преступного мира...-


MPAA: R - Лицам до 17 лет обязательно присутствие взрослого-

Доп. Информация

Сценарий: Энтони Стац / Antoni Stutz, Эшли Скотт Мейерс / Ashley Scott Meyers
Продюсер: Джеффри Култер / Jeffrey Coulter, Габриэлла Столленверк / Gabriella Stollenwerck, Энтони Стац / Antoni Stutz, Пэт Чэпман / Pat Chapman, Нэйтан Корнетт / Nathan Cornett
Оператор: Грег Истербрук / Gregg Easterbrook
Композитор: Джеффри Култер / Jeffrey Coulter
Мировая премьера: 25 апреля 2013
-Качество: WEB-DLRip
Контейнер: AVI
Видео: XviD, 704x288 (2.40:1), 1599 kbps, 23,976 fps, 0,329 bpp
Аудио №1: Russian: AC3 / 2.0 / 48 kHz / 192 kbps / 16 bit
Аудио №2: English: AC3 / 5.1 / 48 kHz / 384 kbps / 16 bit-

Media Info

General
Complete name : G:\Slabie.probleski.2013.P2_WEB-DLRip.avi
Format : AVI
Format/Info : Audio Video Interleave
File size : 1.47 GiB
Duration : 1h 36mn
Overall bit rate : 2 190 Kbps
Writing application : VirtualDubMod 1.5.10.2 (build 2540/release)
Writing library : VirtualDubMod build 2540/release
Video
ID : 0
Format : MPEG-4 Visual
Format profile : Advanced Simple@L5
Format settings, BVOP : 1
Format settings, QPel : No
Format settings, GMC : No warppoints
Format settings, Matrix : Default (MPEG)
Codec ID : XVID
Codec ID/Hint : XviD
Duration : 1h 36mn
Bit rate : 1 600 Kbps
Width : 704 pixels
Height : 288 pixels
Display aspect ratio : 2.40:1
Frame rate : 23.976 fps
Color space : YUV
Chroma subsampling : 4:2:0
Bit depth : 8 bits
Scan type : Progressive
Compression mode : Lossy
Bits/(Pixel*Frame) : 0.329
Stream size : 1.08 GiB (73%)
Writing library : XviD 1.2.1 (UTC 2008-12-04)
Audio #1
ID : 1
Format : AC-3
Format/Info : Audio Coding 3
Mode extension : CM (complete main)
Codec ID : 2000
Duration : 1h 36mn
Bit rate mode : Constant
Bit rate : 192 Kbps
Channel(s) : 2 channels
Channel positions : Front: L R
Sampling rate : 48.0 KHz
Bit depth : 16 bits
Compression mode : Lossy
Stream size : 132 MiB (9%)
Alignment : Split accross interleaves
Interleave, duration : 42 ms (1.00 video frame)
Interleave, preload duration : 500 ms
Audio #2
ID : 2
Format : AC-3
Format/Info : Audio Coding 3
Mode extension : CM (complete main)
Codec ID : 2000
Duration : 1h 36mn
Bit rate mode : Constant
Bit rate : 384 Kbps
Channel(s) : 6 channels
Channel positions : Front: L C R, Side: L R, LFE
Sampling rate : 48.0 KHz
Bit depth : 16 bits
Compression mode : Lossy
Stream size : 265 MiB (18%)
Alignment : Split accross interleaves
Interleave, duration : 42 ms (1.00 video frame)
Interleave, preload duration : 500 ms

Скриншот с названием фильма

Скриншоты

Скачать

Скачать торрент!

Как скачивать? · Что такое торрент? · Рейтинг и ограничения

Сайт не распространяет и не хранит электронные версии произведений, а лишь предоставляет доступ к создаваемому пользователями каталогу ссылок на торрент-файлы, которые содержат только списки хеш-сумм

[Профиль] [ЛС]
Показать сообщения:    
Ответить на тему

Текущее время: Сегодня 07:53

Часовой пояс: GMT + 4



Вы не можете начинать темы
Вы не можете отвечать на сообщения
Вы не можете редактировать свои сообщения
Вы не можете удалять свои сообщения
Вы не можете голосовать в опросах
Вы не можете прикреплять файлы к сообщениям
Вы не можете скачивать файлы