В Сети / Im Netz (Изабель Клефельд / Isabel Kleefeld) [2013, Германия, криминал, SATRip] MVO (Trivor)

Ответить на тему
 
Автор Сообщение

user ®

Стаж: 7 лет 7 месяцев

Сообщений: 20008

Пост Пост: #1 от 08-Июл-2013 09:20

[Цитировать]

В Сети / Im Netz
Страна: Германия
Жанр: криминал
Год выпуска: 2013
Продолжительность: 01:28:42
Перевод: Любительский (многоголосый закадровый) Trivor
Русские субтитры: нет
Оригинальная аудиодорожка: нет
Режиссер: Изабель Клефельд / Isabel Kleefeld
В ролях: Кэролайн Питерс, Ульрике Крумбигель, Феликс Кнопп, Вольфрам Кох, Геральд Александр Хельд, Дитрих Адам, Роберт Долле, Мориц Фюрманн
Описание: Джулиана Шуберт, топ-менеджер крупной торговой фирмы, однажды среди ночи была разбужена неожиданными визитерами: к ней в дом ворвался немецкий спецназ арестовал ее и препроводил в полицейское управление. Там ей к ее удивлению было предъявлено обвинение в поддержке мусульманских террористов. Жизнь Джулианы и близких ей людей была подвергнута жесткому испытанию, которое не все смогли выдержать. Однако с помощью человека, на которого она никак не могла рассчитывать, Джулиана смогла найти достойный выход из этой ситуации.
Доп. информация:
Перевод субтитров: [url=http://***/forum/profile.php?mode=viewprofile&u=22004972]kon2011[/url] (Константин Ломов)
Озвучивали:
Holly
Екатерина Дмитрова (inferno – студия Iron Sound)
SPtrue
GalVid
Постер: SPtrue
IMDb 6,1/10 (54 votes)
Кинопоиск
Сэмпл
Качество видео: SATRip
Формат: AVI
Video: 720x400 (1.80:1), 25 fps, DivX Codec 5.2.1 build 1328 ~2048 kbps avg, 0.28 bit/pixel
Audio: 48 kHz, AC3 Dolby Digital, 2/0 (L,R) ch, ~192 kbps

MediaInfo

Общее
Полное имя : D:\Torrent-D\Im.Netz.(SATRip).Trivor.avi
Формат : AVI
Формат/Информация : Audio Video Interleave
Размер файла : 1,39 Гбайт
Продолжительность : 1 ч. 28 м.
Общий поток : 2250 Кбит/сек
Название фильма : Im.Netz.(SATRip).Trivor
Режиссёр : Release by Trivor
Программа кодирования : VirtualDubMod 1.5.10.3 (build 2550/release)
Видео
Идентификатор : 0
Формат : MPEG-4 Visual
Параметр BVOP формата : Нет
Параметр QPel формата : Нет
Параметр GMC формата : Без точки перехода
Параметр матрицы формата : Default (H.263)
Идентификатор кодека : DX50
Идентификатор кодека/Подсказка : DivX 5
Продолжительность : 1 ч. 28 м.
Битрейт : 2048 Кбит/сек
Ширина : 720 пикс.
Высота : 400 пикс.
Соотношение сторон : 16:9
Частота кадров : 25,000 кадр/сек
Цветовое пространство : YUV
Подвыборка цветности : 4:2:0
Битовая глубина : 8 бит
Тип развёртки : Прогрессивная
Метод сжатия : С потерями
Бит/(Пиксели*Кадры) : 0.285
Размер потока : 1,27 Гбайт (91%)
Библиотека кодирования : DivX 5.2.1 (WaffleDay) (UTC 2004-09-08)
Аудио
Идентификатор : 1
Формат : AC-3
Формат/Информация : Audio Coding 3
Расширение режима : CM (complete main)
Идентификатор кодека : 2000
Продолжительность : 1 ч. 28 м.
Вид битрейта : Постоянный
Битрейт : 192 Кбит/сек
Канал(ы) : 2 канала(ов)
Расположение каналов : Front: L R
Частота : 48,0 КГц
Битовая глубина : 16 бит
Метод сжатия : С потерями
Размер потока : 122 Мбайт (9%)
Выравнивание : Разделение по промежуткам
Продолжительность промежутка : 40 мс. (1,00 видеокадр)
Время предзагрузки промежутка : 500 ms

Скриншот с названием фильма

Скриншоты

Скачать

Скачать торрент!

Как скачивать? · Что такое торрент? · Рейтинг и ограничения

Сайт не распространяет и не хранит электронные версии произведений, а лишь предоставляет доступ к создаваемому пользователями каталогу ссылок на торрент-файлы, которые содержат только списки хеш-сумм

[Профиль] [ЛС]
Показать сообщения:    
Ответить на тему

Текущее время: Сегодня 06:24

Часовой пояс: GMT + 4



Вы не можете начинать темы
Вы не можете отвечать на сообщения
Вы не можете редактировать свои сообщения
Вы не можете удалять свои сообщения
Вы не можете голосовать в опросах
Вы не можете прикреплять файлы к сообщениям
Вы не можете скачивать файлы