Порочные игры / Stoker (Пак Чхан-ук / Chan-wook Park) [2013, Триллер, драма, детектив, BDRip-AVC] AVO Дольский

Ответить на тему
 
Автор Сообщение

user ®

Стаж: 7 лет 7 месяцев

Сообщений: 20008

Пост Пост: #1 от 08-Июл-2013 09:20

[Цитировать]

Порочные игры / Stoker- Страна:
Жанр: Триллер, драма, детектив
Год выпуска: 2013
Продолжительность: 01:38:55
Перевод: авторский (одноголосый) [А. Дольский]
Субтитры: нет
Оригинальная дорожка: нет
Главы: есть
Режиссер: Пак Чхан-ук / Chan-wook Park
В ролях: Миа Васиковска, Мэттью Гуд, Николь Кидман, Дермот Малруни, Джеки Уивер, Лукас Тилл, Олден Эйренрайк, Жюдит Годреш, Ральф Браун, Уильям Райан Уотсон-Описание: История повествует про необычную девушку. У нее в жизни начались резкие изменения — сначала погибает отец, а потом его место занимает таинственный дядя, который решил взять опеку над осиротевшей семьей.-Раздача от: | Рип L-Доп. информация:
IMDB | Кинопоиск | Сэмпл-Качество видео: BDRip-AVC
Формат видео: MKV
Видео: AVC / High@L4.1 / 1032 x 430 / 1 659 Kbps / 2.40:1
Аудио: 48 kHz, AC3 Dolby Digital, 3/2 (L,C,R,l,r) + LFE ch, ~448 kbps - Русский

Скриншоты



Дополнительная информация о раздаче

Исходник

Stoker 2013 1080p Blu-ray AVC DTS-HD MA 5.1-HDWinG

MediaInfo

General
Unique ID                                : 212636336271628075637532062004297712056 (0x9FF844CB6D04E373AB1B6A873559C1B8)
Complete name                            : D:\25Kadr\Porochnie.Igri.2013.Bluray.x264.ac3.rus.RG.25.Kadr[by.L].mkv
Format                                   : Matroska
Format version                           : Version 2
File size                                : 1.46 GiB
Duration                                 : 1h 38mn
Overall bit rate                         : 2 108 Kbps
Movie name                               : Порочные игры / Stoker [2013 г.] | Рип L [R.G. 25 Кадр]
Encoded date                             : UTC 2013-06-16 12:54:08
Writing application                      : mkvmerge v3.2.0 (''Beginnings'') built on Feb 12 2010 16:46:17
Writing library                          : libebml v0.7.9 + libmatroska v0.8.1
Video
ID                                       : 1
Format                                   : AVC
Format/Info                              : Advanced Video Codec
Format profile                           : High@L4.1
Format settings, CABAC                   : Yes
Format settings, ReFrames                : 12 frames
Codec ID                                 : V_MPEG4/ISO/AVC
Duration                                 : 1h 38mn
Bit rate                                 : 1 659 Kbps
Width                                    : 1 032 pixels
Height                                   : 430 pixels
Display aspect ratio                     : 2.40:1
Frame rate mode                          : Constant
Frame rate                               : 23.976 fps
Color space                              : YUV
Chroma subsampling                       : 4:2:0
Bit depth                                : 8 bits
Scan type                                : Progressive
Bits/(Pixel*Frame)                       : 0.156
Stream size                              : 1.12 GiB (77%)
Writing library                          : x264 core 133 r2334 a3ac64b
Encoding settings                        : cabac=1 / ref=12 / deblock=1:-2:-1 / analyse=0x3:0x133 / me=umh / subme=11 / psy=1 / psy_rd=0.95:0.05 / mixed_ref=1 / me_range=32 / chroma_me=1 / trellis=2 / 8x8dct=1 / cqm=0 / deadzone=21,11 / fast_pskip=0 / chroma_qp_offset=-4 / threads=6 / lookahead_threads=1 / sliced_threads=0 / nr=0 / decimate=1 / interlaced=0 / bluray_compat=0 / constrained_intra=0 / bframes=12 / b_pyramid=2 / b_adapt=2 / b_bias=0 / direct=3 / weightb=1 / open_gop=0 / weightp=2 / keyint=230 / keyint_min=21 / scenecut=40 / intra_refresh=0 / rc_lookahead=0 / rc=2pass / mbtree=0 / bitrate=1659 / ratetol=1.0 / qcomp=0.70 / qpmin=0 / qpmax=69 / qpstep=4 / cplxblur=20.0 / qblur=0.5 / vbv_maxrate=50000 / vbv_bufsize=62500 / nal_hrd=none / ip_ratio=1.35 / pb_ratio=1.25 / aq=2:0.90
Language                                 : English
Default                                  : No
Forced                                   : No
Audio
ID                                       : 2
Format                                   : AC-3
Format/Info                              : Audio Coding 3
Mode extension                           : CM (complete main)
Format settings, Endianness              : Big
Codec ID                                 : A_AC3
Duration                                 : 1h 38mn
Bit rate mode                            : Constant
Bit rate                                 : 448 Kbps
Channel(s)                               : 6 channels
Channel positions                        : Front: L C R, Side: L R, LFE
Sampling rate                            : 48.0 KHz
Bit depth                                : 16 bits
Compression mode                         : Lossy
Stream size                              : 317 MiB (21%)
Title                                    : Авторский (одноголосый) [А. Дольский]
Language                                 : Russian
Default                                  : Yes
Forced                                   : No
Menu
00:00:00.000                             : en:00:00:00.000
00:03:48.603                             : en:00:03:48.603
00:04:37.277                             : en:00:04:37.277
00:07:26.863                             : en:00:07:26.863
00:08:42.147                             : en:00:08:42.147
00:13:28.558                             : en:00:13:28.558
00:16:59.810                             : en:00:16:59.810
00:19:24.955                             : en:00:19:24.955
00:22:27.096                             : en:00:22:27.096
00:26:50.067                             : en:00:26:50.067
00:30:26.533                             : en:00:30:26.533
00:34:43.290                             : en:00:34:43.290
00:39:18.565                             : en:00:39:18.565
00:41:47.505                             : en:00:41:47.505
00:46:14.772                             : en:00:46:14.772
00:49:42.730                             : en:00:49:42.730
00:52:46.830                             : en:00:52:46.830
00:54:50.496                             : en:00:54:50.496
00:59:21.558                             : en:00:59:21.558
01:02:43.051                             : en:01:02:43.051
01:07:04.187                             : en:01:07:04.187
01:08:38.239                             : en:01:08:38.239
01:15:24.895                             : en:01:15:24.895
01:18:14.773                             : en:01:18:14.773
01:22:11.927                             : en:01:22:11.927
01:26:22.511                             : en:01:26:22.511
01:31:17.472                             : en:01:31:17.472
01:34:38.214                             : en:01:34:38.214

Log_x264

---[Information] [09.06.2013 21:47:33] x264 [info]: frame I:1087  Avg QP:16.28  size: 68135  PSNR Mean Y:47.28 U:50.86 V:51.93 Avg:48.24 Global:47.48
---[Information] [09.06.2013 21:47:33] x264 [info]: frame P:26750 Avg QP:19.06  size: 19259  PSNR Mean Y:45.02 U:49.02 V:50.61 Avg:46.07 Global:45.12
---[Information] [09.06.2013 21:47:33] x264 [info]: frame B:114483 Avg QP:20.83  size:  5602  PSNR Mean Y:44.53 U:48.74 V:50.66 Avg:45.62 Global:44.67
Скачать

Скачать торрент!

Как скачивать? · Что такое торрент? · Рейтинг и ограничения

Сайт не распространяет и не хранит электронные версии произведений, а лишь предоставляет доступ к создаваемому пользователями каталогу ссылок на торрент-файлы, которые содержат только списки хеш-сумм

[Профиль] [ЛС]
Показать сообщения:    
Ответить на тему

Текущее время: Сегодня 04:28

Часовой пояс: GMT + 4



Вы не можете начинать темы
Вы не можете отвечать на сообщения
Вы не можете редактировать свои сообщения
Вы не можете удалять свои сообщения
Вы не можете голосовать в опросах
Вы не можете прикреплять файлы к сообщениям
Вы не можете скачивать файлы