Мультфильмы из будущего (Семён Винокур) [2008-2010, сборник мультфильмов, WEB-DLRip, AVС]

Ответить на тему
 
Автор Сообщение

vospitanie ®

Стаж: 3 года 11 месяцев

Сообщений: 21

Пост Пост: #1 от 01-Май-2013 19:49

[Цитировать]

Мультфильмы из будущего -Название: Мультфильмы из будущего
Год выпуска: 2008-2010
Страна: Россия, Израиль
Производство: Ari Films
Жанр: мультфильмы
Количество мультфильмов: 10
Продолжительность: 01:06:41
Перевод: оригинал (русский язык)
Субтитры: нет-Роли озвучивают: Светлана Демидова, Владимир Гру, Семён Винокур, Ицик Смагин
Режиссёр: Семён Винокур-Описание: Сборник мультфильмов рассказывает детям о дружбе, преданности, уважении, любви и о многом-многом другом. Красивые мультипликационные истории не дадут детишкам скучать, пока они учатся быть добрыми. Познавательные и обучающие сюжеты.-Качество: WEB-DLRip
Формат: MP4
Видеокодек: MPEG-4 AVC (H.264)
Аудиокодек: ACC
Видео: 720 x 400, 25,000 fps, 450 Kbps, 0.063 bit/pixel
Аудио: 44,1 kHz, 1 ch, 32 kb/s

Скриншоты

MediaInfo

Волшебные очки: MediaInfo

Общее
Полное имя : Волшебные_очки.mp4
Формат : MPEG-4
Профиль формата : Base Media
Идентификатор кодека : isom
Размер файла : 41,0 Мбайт
Продолжительность : 11 м.
Режим общего битрейта : Переменный
Общий поток : 500 Кбит/сек
Программа кодирования : Lavf52.93.0
Видео
Идентификатор : 1
Формат : AVC
Формат/Информация : Advanced Video Codec
Профиль формата : Baseline@L3.0
Параметр CABAC формата : Нет
Параметр ReFrames формата : 1 кадр
Идентификатор кодека : avc1
Идентификатор кодека/Информация : Advanced Video Coding
Продолжительность : 11 м.
Битрейт : 450 Кбит/сек
Ширина : 720 пикселей
Высота : 400 пикселей
Соотношение сторон : 16:9
Режим частоты кадров : Постоянный
Частота кадров : 25,000 кадров/сек
Цветовое пространство : YUV
Субдискретизация насыщенности : 4:2:0
Битовая глубина : 8 бит
Тип развёртки : Прогрессивная
Бит/(Пиксели*Кадры) : 0.063
Размер потока : 38,0 Мбайт (93%)
Библиотека кодирования : x264 core 112
Аудио
Идентификатор : 2
Формат : AAC
Формат/Информация : Advanced Audio Codec
Профиль формата : LC
Идентификатор кодека : 40
Продолжительность : 11 м.
Вид битрейта : Переменный
Битрейт : 31,9 Кбит/сек
Каналы : 2 канала
Original Channel count : 1 канал
Расположение каналов : Front: C
Частота : 44,1 КГц
Метод сжатия : С потерями
Размер потока : 2,62 Мбайт (6%)

Город роботов: MediaInfo

Общее
Полное имя : Город_роботов.mp4
Формат : MPEG-4
Профиль формата : Base Media
Идентификатор кодека : isom
Размер файла : 28,8 Мбайт
Продолжительность : 8 м. 18 с.
Режим общего битрейта : Переменный
Общий поток : 484 Кбит/сек
Программа кодирования : Lavf52.93.0
Видео
Идентификатор : 1
Формат : AVC
Формат/Информация : Advanced Video Codec
Профиль формата : Baseline@L3.0
Параметр CABAC формата : Нет
Параметр ReFrames формата : 1 кадр
Идентификатор кодека : avc1
Идентификатор кодека/Информация : Advanced Video Coding
Продолжительность : 8 м. 18 с.
Битрейт : 450 Кбит/сек
Ширина : 720 пикселей
Высота : 400 пикселей
Соотношение сторон : 16:9
Режим частоты кадров : Постоянный
Частота кадров : 25,000 кадров/сек
Цветовое пространство : YUV
Субдискретизация насыщенности : 4:2:0
Битовая глубина : 8 бит
Тип развёртки : Прогрессивная
Бит/(Пиксели*Кадры) : 0.063
Размер потока : 26,6 Мбайт (92%)
Библиотека кодирования : x264 core 112
Аудио
Идентификатор : 2
Формат : AAC
Формат/Информация : Advanced Audio Codec
Профиль формата : LC
Идентификатор кодека : 40
Продолжительность : 8 м. 18 с.
Вид битрейта : Переменный
Битрейт : 32,0 Кбит/сек
Каналы : 2 канала
Original Channel count : 1 канал
Расположение каналов : Front: C
Частота : 44,1 КГц
Метод сжатия : С потерями
Размер потока : 1,90 Мбайт (7%)

Как сохранить креативность: MediaInfo

Общее
Полное имя : Как_сохранить_креативность.mp4
Формат : MPEG-4
Профиль формата : Base Media
Идентификатор кодека : isom
Размер файла : 7,92 Мбайт
Продолжительность : 2 м. 16 с.
Режим общего битрейта : Переменный
Общий поток : 485 Кбит/сек
Программа кодирования : Lavf52.93.0
Видео
Идентификатор : 1
Формат : AVC
Формат/Информация : Advanced Video Codec
Профиль формата : Baseline@L3.0
Параметр CABAC формата : Нет
Параметр ReFrames формата : 1 кадр
Идентификатор кодека : avc1
Идентификатор кодека/Информация : Advanced Video Coding
Продолжительность : 2 м. 16 с.
Битрейт : 450 Кбит/сек
Ширина : 720 пикселей
Высота : 400 пикселей
Соотношение сторон : 16:9
Режим частоты кадров : Постоянный
Частота кадров : 25,000 кадров/сек
Цветовое пространство : YUV
Субдискретизация насыщенности : 4:2:0
Битовая глубина : 8 бит
Тип развёртки : Прогрессивная
Бит/(Пиксели*Кадры) : 0.063
Размер потока : 7,33 Мбайт (92%)
Библиотека кодирования : x264 core 112
Аудио
Идентификатор : 2
Формат : AAC
Формат/Информация : Advanced Audio Codec
Профиль формата : LC
Идентификатор кодека : 40
Продолжительность : 2 м. 16 с.
Вид битрейта : Переменный
Битрейт : 32,0 Кбит/сек
Каналы : 2 канала
Original Channel count : 1 канал
Расположение каналов : Front: C
Частота : 44,1 КГц
Метод сжатия : С потерями
Размер потока : 535 Кбайт (7%)

Как творить чудеса: MediaInfo

Общее
Полное имя : Как_творить_чудеса.mp4
Формат : MPEG-4
Профиль формата : Base Media
Идентификатор кодека : isom
Размер файла : 34,5 Мбайт
Продолжительность : 9 м. 48 с.
Режим общего битрейта : Переменный
Общий поток : 493 Кбит/сек
Программа кодирования : Lavf52.93.0
Видео
Идентификатор : 1
Формат : AVC
Формат/Информация : Advanced Video Codec
Профиль формата : Baseline@L3.0
Параметр CABAC формата : Нет
Параметр ReFrames формата : 1 кадр
Идентификатор кодека : avc1
Идентификатор кодека/Информация : Advanced Video Coding
Продолжительность : 9 м. 48 с.
Битрейт : 450 Кбит/сек
Ширина : 720 пикселей
Высота : 400 пикселей
Соотношение сторон : 16:9
Режим частоты кадров : Постоянный
Частота кадров : 25,000 кадров/сек
Цветовое пространство : YUV
Субдискретизация насыщенности : 4:2:0
Битовая глубина : 8 бит
Тип развёртки : Прогрессивная
Бит/(Пиксели*Кадры) : 0.063
Размер потока : 32,0 Мбайт (93%)
Библиотека кодирования : x264 core 112
Аудио
Идентификатор : 2
Формат : AAC
Формат/Информация : Advanced Audio Codec
Профиль формата : LC
Идентификатор кодека : 40
Продолжительность : 9 м. 48 с.
Вид битрейта : Переменный
Битрейт : 32,0 Кбит/сек
Каналы : 2 канала
Original Channel count : 1 канал
Расположение каналов : Front: C
Частота : 44,1 КГц
Метод сжатия : С потерями
Размер потока : 2,24 Мбайт (6%)

Копия: MediaInfo

Общее
Полное имя : Копия.mp4
Формат : MPEG-4
Профиль формата : Base Media
Идентификатор кодека : isom
Размер файла : 16,1 Мбайт
Продолжительность : 4 м. 32 с.
Режим общего битрейта : Переменный
Общий поток : 496 Кбит/сек
Программа кодирования : Lavf52.93.0
Видео
Идентификатор : 1
Формат : AVC
Формат/Информация : Advanced Video Codec
Профиль формата : Baseline@L3.0
Параметр CABAC формата : Нет
Параметр ReFrames формата : 1 кадр
Идентификатор кодека : avc1
Идентификатор кодека/Информация : Advanced Video Coding
Продолжительность : 4 м. 32 с.
Битрейт : 450 Кбит/сек
Ширина : 720 пикселей
Высота : 400 пикселей
Соотношение сторон : 16:9
Режим частоты кадров : Постоянный
Частота кадров : 25,000 кадров/сек
Цветовое пространство : YUV
Субдискретизация насыщенности : 4:2:0
Битовая глубина : 8 бит
Тип развёртки : Прогрессивная
Бит/(Пиксели*Кадры) : 0.063
Размер потока : 14,9 Мбайт (93%)
Библиотека кодирования : x264 core 112
Аудио
Идентификатор : 2
Формат : AAC
Формат/Информация : Advanced Audio Codec
Профиль формата : LC
Идентификатор кодека : 40
Продолжительность : 4 м. 32 с.
Вид битрейта : Переменный
Битрейт : 31,6 Кбит/сек
Каналы : 2 канала
Original Channel count : 1 канал
Расположение каналов : Front: C
Частота : 44,1 КГц
Метод сжатия : С потерями
Размер потока : 1,03 Мбайт (6%)

Невидимка: MediaInfo

Общее
Полное имя : Невидимка.mp4
Формат : MPEG-4
Профиль формата : Base Media
Идентификатор кодека : isom
Размер файла : 21,4 Мбайт
Продолжительность : 6 м. 12 с.
Режим общего битрейта : Переменный
Общий поток : 482 Кбит/сек
Программа кодирования : Lavf52.93.0
Видео
Идентификатор : 1
Формат : AVC
Формат/Информация : Advanced Video Codec
Профиль формата : Baseline@L3.0
Параметр CABAC формата : Нет
Параметр ReFrames формата : 1 кадр
Идентификатор кодека : avc1
Идентификатор кодека/Информация : Advanced Video Coding
Продолжительность : 6 м. 12 с.
Битрейт : 450 Кбит/сек
Ширина : 720 пикселей
Высота : 400 пикселей
Соотношение сторон : 16:9
Режим частоты кадров : Постоянный
Частота кадров : 25,000 кадров/сек
Цветовое пространство : YUV
Субдискретизация насыщенности : 4:2:0
Битовая глубина : 8 бит
Тип развёртки : Прогрессивная
Бит/(Пиксели*Кадры) : 0.063
Размер потока : 19,8 Мбайт (92%)
Библиотека кодирования : x264 core 112
Аудио
Идентификатор : 2
Формат : AAC
Формат/Информация : Advanced Audio Codec
Профиль формата : LC
Идентификатор кодека : 40
Продолжительность : 6 м. 12 с.
Вид битрейта : Переменный
Битрейт : 31,9 Кбит/сек
Каналы : 2 канала
Original Channel count : 1 канал
Расположение каналов : Front: C
Частота : 44,1 КГц
Метод сжатия : С потерями
Размер потока : 1,42 Мбайт (7%)

Отличник: MediaInfo

Общее
Полное имя : Отличник.mp4
Формат : MPEG-4
Профиль формата : Base Media
Идентификатор кодека : isom
Размер файла : 28,2 Мбайт
Продолжительность : 8 м. 1 с.
Режим общего битрейта : Переменный
Общий поток : 492 Кбит/сек
Программа кодирования : Lavf52.93.0
Видео
Идентификатор : 1
Формат : AVC
Формат/Информация : Advanced Video Codec
Профиль формата : Baseline@L3.0
Параметр CABAC формата : Нет
Параметр ReFrames формата : 1 кадр
Идентификатор кодека : avc1
Идентификатор кодека/Информация : Advanced Video Coding
Продолжительность : 8 м. 1 с.
Битрейт : 450 Кбит/сек
Ширина : 720 пикселей
Высота : 400 пикселей
Соотношение сторон : 16:9
Режим частоты кадров : Постоянный
Частота кадров : 25,000 кадров/сек
Цветовое пространство : YUV
Субдискретизация насыщенности : 4:2:0
Битовая глубина : 8 бит
Тип развёртки : Прогрессивная
Бит/(Пиксели*Кадры) : 0.063
Размер потока : 26,1 Мбайт (93%)
Библиотека кодирования : x264 core 112
Аудио
Идентификатор : 2
Формат : AAC
Формат/Информация : Advanced Audio Codec
Профиль формата : LC
Идентификатор кодека : 40
Продолжительность : 8 м. 1 с.
Вид битрейта : Переменный
Битрейт : 31,8 Кбит/сек
Каналы : 2 канала
Original Channel count : 1 канал
Расположение каналов : Front: C
Частота : 44,1 КГц
Метод сжатия : С потерями
Размер потока : 1,82 Мбайт (6%)

Принцесса Мая: MediaInfo

Общее
Полное имя : Принцесса_Мая.mp4
Формат : MPEG-4
Профиль формата : Base Media
Идентификатор кодека : isom
Размер файла : 22,8 Мбайт
Продолжительность : 6 м. 37 с.
Режим общего битрейта : Переменный
Общий поток : 481 Кбит/сек
Программа кодирования : Lavf52.93.0
Видео
Идентификатор : 1
Формат : AVC
Формат/Информация : Advanced Video Codec
Профиль формата : Baseline@L3.0
Параметр CABAC формата : Нет
Параметр ReFrames формата : 1 кадр
Идентификатор кодека : avc1
Идентификатор кодека/Информация : Advanced Video Coding
Продолжительность : 6 м. 37 с.
Битрейт : 450 Кбит/сек
Ширина : 720 пикселей
Высота : 400 пикселей
Соотношение сторон : 16:9
Режим частоты кадров : Постоянный
Частота кадров : 25,000 кадров/сек
Цветовое пространство : YUV
Субдискретизация насыщенности : 4:2:0
Битовая глубина : 8 бит
Тип развёртки : Прогрессивная
Бит/(Пиксели*Кадры) : 0.063
Размер потока : 21,1 Мбайт (92%)
Библиотека кодирования : x264 core 112
Аудио
Идентификатор : 2
Формат : AAC
Формат/Информация : Advanced Audio Codec
Профиль формата : LC
Идентификатор кодека : 40
Продолжительность : 6 м. 37 с.
Вид битрейта : Переменный
Битрейт : 32,0 Кбит/сек
Каналы : 2 канала
Original Channel count : 1 канал
Расположение каналов : Front: C
Частота : 44,1 КГц
Метод сжатия : С потерями
Размер потока : 1,52 Мбайт (7%)

Учитель: MediaInfo

Общее
Полное имя : Учитель.mp4
Формат : MPEG-4
Профиль формата : Base Media
Идентификатор кодека : isom
Размер файла : 9,58 Мбайт
Продолжительность : 2 м. 48 с.
Режим общего битрейта : Переменный
Общий поток : 476 Кбит/сек
Программа кодирования : Lavf52.93.0
Видео
Идентификатор : 1
Формат : AVC
Формат/Информация : Advanced Video Codec
Профиль формата : Baseline@L3.0
Параметр CABAC формата : Нет
Параметр ReFrames формата : 1 кадр
Идентификатор кодека : avc1
Идентификатор кодека/Информация : Advanced Video Coding
Продолжительность : 2 м. 48 с.
Битрейт : 450 Кбит/сек
Ширина : 720 пикселей
Высота : 400 пикселей
Соотношение сторон : 16:9
Режим частоты кадров : Постоянный
Частота кадров : 25,000 кадров/сек
Цветовое пространство : YUV
Субдискретизация насыщенности : 4:2:0
Битовая глубина : 8 бит
Тип развёртки : Прогрессивная
Бит/(Пиксели*Кадры) : 0.063
Размер потока : 8,87 Мбайт (93%)
Библиотека кодирования : x264 core 112
Аудио
Идентификатор : 2
Формат : AAC
Формат/Информация : Advanced Audio Codec
Профиль формата : LC
Идентификатор кодека : 40
Продолжительность : 2 м. 48 с.
Вид битрейта : Переменный
Битрейт : 30,9 Кбит/сек
Каналы : 2 канала
Original Channel count : 1 канал
Расположение каналов : Front: C
Частота : 44,1 КГц
Метод сжатия : С потерями
Размер потока : 636 Кбайт (6%)
Язык : Hebrew

Чтобы жить-не тужить: MediaInfo

Общее
Полное имя : Чтобы_жить-не_тужить.mp4
Формат : MPEG-4
Профиль формата : Base Media
Идентификатор кодека : isom
Размер файла : 23,5 Мбайт
Продолжительность : 6 м. 35 с.
Режим общего битрейта : Переменный
Общий поток : 498 Кбит/сек
Программа кодирования : Lavf52.93.0
Видео
Идентификатор : 1
Формат : AVC
Формат/Информация : Advanced Video Codec
Профиль формата : Baseline@L3.0
Параметр CABAC формата : Нет
Параметр ReFrames формата : 1 кадр
Идентификатор кодека : avc1
Идентификатор кодека/Информация : Advanced Video Coding
Продолжительность : 6 м. 35 с.
Битрейт : 450 Кбит/сек
Ширина : 720 пикселей
Высота : 400 пикселей
Соотношение сторон : 16:9
Режим частоты кадров : Постоянный
Частота кадров : 25,000 кадров/сек
Цветовое пространство : YUV
Субдискретизация насыщенности : 4:2:0
Битовая глубина : 8 бит
Тип развёртки : Прогрессивная
Бит/(Пиксели*Кадры) : 0.063
Размер потока : 21,8 Мбайт (93%)
Библиотека кодирования : x264 core 112
Аудио
Идентификатор : 2
Формат : AAC
Формат/Информация : Advanced Audio Codec
Профиль формата : LC
Идентификатор кодека : 40
Продолжительность : 6 м. 35 с.
Вид битрейта : Переменный
Битрейт : 31,8 Кбит/сек
Каналы : 2 канала
Original Channel count : 1 канал
Расположение каналов : Front: C
Частота : 44,1 КГц
Метод сжатия : С потерями
Размер потока : 1,50 Мбайт (6%)

Список мультфильмов


01. Волшебные_очки - (11:27)
02. Город_роботов - (08:19)
03. Как_сохранить_креативность - (02:17)
04. Как_творить_чудеса - (09:48)
05. Копия - (04:32)
06. Невидимка - (06:12)
07. Отличник - (08:01)
08. Принцесса_Мая - (06:37)
09. Учитель - (02:49)
10. Чтобы_жить-не_тужить - (06:35)

Дополнительная информация

- -Ashlag Research Institute (ARI) – некоммерческая организация, цель которой – реализация инновационных идей в образовательной политике для разрешения системных проблем современного образования и воспитания. Система образования, построенная на концепции изучения законов интегрального и взаимозависимого мира, является необходимым условием привнесения положительных изменений в жизнь человечества. Наши разработки основаны на адаптации знаний тысячелетней давности, которые содержат системное решение современных проблем. Мы регулярно инициируем диалог о мировом кризисе, рассматривая его как возможность произвести позитивные изменения в глобальном сознании. Во главу угла мы ставим воспитание будущих поколений с целью помочь им успешно справиться с масштабными климатическими, экономическими и геополитическими изменениями. Наши идеи и материалы доступны всем, вне зависимости от возраста, пола, вероисповедания, политических убеждений или культурных традиций и мировоззрения. Ashlag Research Institute (ARI) направляет свои усилия на укрепление международного и междисциплинарного сотрудничества. Приоритетным направлением деятельности является разработка и практическая реализация принципов глобального и интегрального образования. Ashlag Research Institute (ARI) осуществляет свои программы и без ограничений предоставляет свою базу знаний с помощью имеющихся мультимедийных каналов всему миру. Мы стремимся улучшить осведомлённость людей о существующей взаимной ответственности при выстраивании отношений между собой, о необходимости быть лично вовлечёнными в данный процесс. Таким образом, мы предлагаем пути решения серьезных проблем, оказывающих влияние на современное общество. На сегодняшний день в рамках образовательных программ Ashlag Research Institute (ARI) систематически занимаются тысячи студентов из России и СНГ, а так же Северной и Южной Америки, Европы, Ближнего Востока, Австралии, Азии и Африки.
Скачать

Скачать торрент!

Как скачивать? · Что такое торрент? · Рейтинг и ограничения

Сайт не распространяет и не хранит электронные версии произведений, а лишь предоставляет доступ к создаваемому пользователями каталогу ссылок на торрент-файлы, которые содержат только списки хеш-сумм

[Профиль] [ЛС]
Показать сообщения:    
Ответить на тему

Текущее время: Сегодня 03:09

Часовой пояс: GMT + 4



Вы не можете начинать темы
Вы не можете отвечать на сообщения
Вы не можете редактировать свои сообщения
Вы не можете удалять свои сообщения
Вы не можете голосовать в опросах
Вы не можете прикреплять файлы к сообщениям
Вы не можете скачивать файлы