«Весёлые» каникулы / Get the Gringo (Адриан Грюнберг / Adrian Grunberg) [2012, США, боевик, триллер, драма, криминал, BDRip] DUB + VO + Original (Eng) + Subs (rus,eng)

Ответить на тему
 
Автор Сообщение

user ®

Стаж: 7 лет 7 месяцев

Сообщений: 20008

Пост Пост: #1 от 23-Авг-2012 09:48

[Цитировать]

"ВЕСЁЛЫЕ" КАНИКУЛЫ / Get the Gringo
«Plan your getaway»
-Страна: США
Студии: Airborne Productions, Icon Productions
Жанр: боевик, триллер, драма, криминал
Год выпуска: 2012
Продолжительность: 01:35:59-Перевод 1: профессиональный (дублированный) лицензия
Перевод 2: одноголосый (закадровый) А. Багичев
Субтитры: русские (Full) + английские (Full+SDH) отдельно
Оригинальная аудиодорожка: английский-Режиссёр: Адриан Грюнберг / Adrian Grunberg-В ролях: Мэл Гибсон (Driver), Кевин Эрнандез (Kid), Долорес Эредия (Kid's Mom), Хесус Очоа (Caracas), Петер Стормаре (Frank), Дин Норрис (Bill), Боб Гантон (Mr. Kaufmann), Скотт Коэн (Frank's Lawyer), София Сиснига (20 Year Old Bombshell), Стефани Николь Лемелин (Frank's Lawyer's Secretary), Патрик Бошо (Surgeon), Жерардо Тарачена (Ramiro).-Описание:
Лента расскажет о пойманном мексиканскими властями преступнике, заключенном в полную наркотиков и насилия тюрьму...
-7.3/10 (15050) 7.277 (7698)-Rip by [
Качество видео: BDRip (Исходник BDRemux 1080p)
Формат файла: AVI-Видео: XviD, 720x304 (2.35:1), 23.976 fps, 1888 kbps avg, 0.36 bit/pixel
Аудио 1: 48 kHz, AC3 Dolby Digital, 3/2 (L,C,R,l,r) + LFE ch, 448 kbps avg (Rus DUB)
Аудио 2: 48 kHz, AC3 Dolby Digital, 3/2 (L,C,R,l,r) + LFE ch, 448 kbps avg (Rus VO Багичев)
Аудио 3: 48 kHz, AC3 Dolby Digital, 3/2 (L,C,R,l,r) + LFE ch, 448 kbps avg (Original Eng)
Формат субтитров: softsub (SRT)-

MediaInfo

Общее
Полное имя : D:\Torrent\Get.The.Gringo.2012.TRIPLE.XviD.AC3.BDRip._by.ZNG505\Get.The.Gringo.2012.TRIPLE.XviD.AC3.BDRip.avi
Формат : AVI
Формат/Информация : Audio Video Interleave
Профиль формата : OpenDML
Размер файла : 2,18 Гбайт
Продолжительность : 1 ч. 35 м.
Общий поток : 3256 Кбит/сек
Программа кодирования : VirtualDubModRus 1.5.10.2 (build 2542/release)
Библиотека кодирования : VirtualDubMod build 2542/release
Видео
Идентификатор : 0
Формат : MPEG-4 Visual
Профиль формата : Advanced Simple@L5
Параметр BVOP формата : 2
Параметр QPel формата : Нет
Параметр GMC формата : Без точки перехода
Параметр матрицы формата : Выборочная
Идентификатор кодека : XVID
Идентификатор кодека/Подсказка : XviD
Продолжительность : 1 ч. 35 м.
Битрейт : 1888 Кбит/сек
Ширина : 720 пикселей
Высота : 304 пикселя
Соотношение сторон : 2,35:1
Частота кадров : 23,976 кадра/сек
Цветовое пространство : YUV
Субдискретизация насыщенности : 4:2:0
Битовая глубина : 8 бит
Тип развёртки : Прогрессивная
Метод сжатия : С потерями
Бит/(Пиксели*Кадры) : 0.360
Размер потока : 1,27 Гбайт (58%)
Библиотека кодирования : XviD 65
Аудио #1
Идентификатор : 1
Формат : AC-3
Формат/Информация : Audio Coding 3
Расширение режима : CM (complete main)
Идентификатор кодека : 2000
Продолжительность : 1 ч. 35 м.
Вид битрейта : Постоянный
Битрейт : 448 Кбит/сек
Каналы : 6 каналов
Расположение каналов : Front: L C R, Side: L R, LFE
Частота : 48,0 КГц
Битовая глубина : 16 бит
Метод сжатия : С потерями
Размер потока : 308 Мбайт (14%)
Выравнивание : Разделение по промежуткам
Продолжительность промежутка : 42 мс. (1,00 видеокадр)
Время предзагрузки промежутка : 500 мс.
Заголовок : Rus DUB
Аудио #2
Идентификатор : 2
Формат : AC-3
Формат/Информация : Audio Coding 3
Расширение режима : CM (complete main)
Идентификатор кодека : 2000
Продолжительность : 1 ч. 35 м.
Вид битрейта : Постоянный
Битрейт : 448 Кбит/сек
Каналы : 6 каналов
Расположение каналов : Front: L C R, Side: L R, LFE
Частота : 48,0 КГц
Битовая глубина : 16 бит
Метод сжатия : С потерями
Размер потока : 308 Мбайт (14%)
Выравнивание : Разделение по промежуткам
Продолжительность промежутка : 42 мс. (1,00 видеокадр)
Время предзагрузки промежутка : 500 мс.
Заголовок : Rus VO Багичев
Аудио #3
Идентификатор : 3
Формат : AC-3
Формат/Информация : Audio Coding 3
Расширение режима : CM (complete main)
Идентификатор кодека : 2000
Продолжительность : 1 ч. 35 м.
Вид битрейта : Постоянный
Битрейт : 448 Кбит/сек
Каналы : 6 каналов
Расположение каналов : Front: L C R, Side: L R, LFE
Частота : 48,0 КГц
Битовая глубина : 16 бит
Метод сжатия : С потерями
Размер потока : 308 Мбайт (14%)
Выравнивание : Разделение по промежуткам
Продолжительность промежутка : 42 мс. (1,00 видеокадр)
Время предзагрузки промежутка : 500 мс.
Заголовок : Eng Original

Скриншот c названием фильма

Скриншоты

Скачать

Скачать торрент!

Как скачивать? · Что такое торрент? · Рейтинг и ограничения

Сайт не распространяет и не хранит электронные версии произведений, а лишь предоставляет доступ к создаваемому пользователями каталогу ссылок на торрент-файлы, которые содержат только списки хеш-сумм

[Профиль] [ЛС]
Показать сообщения:    
Ответить на тему

Текущее время: Сегодня 02:25

Часовой пояс: GMT + 4



Вы не можете начинать темы
Вы не можете отвечать на сообщения
Вы не можете редактировать свои сообщения
Вы не можете удалять свои сообщения
Вы не можете голосовать в опросах
Вы не можете прикреплять файлы к сообщениям
Вы не можете скачивать файлы