Джон Картер / John Carter (Эндрю Стэнтон / Andrew Stanton) [2012, США, фантастика, фэнтези, боевик, приключения, BDRip] DUB (Лицензия) + Sub Rus Forced

Ответить на тему
 
Автор Сообщение

user ®

Стаж: 7 лет 7 месяцев

Сообщений: 20008

Пост Пост: #1 от 23-Авг-2012 09:46

[Цитировать]

ДЖОН КАРТЕР / John Carter
«В этом мире у каждого есть второй шанс»
-Страна: США
Жанр: фантастика, фэнтези, боевик, приключения
Студия: Walt Disney Pictures
Год выпуска: 2012
Продолжительность: 02:12:01-Перевод: профессиональный (дублированный) лицензия
Субтитры: русские (Forced) на речь марсиан (отдельно!)-Режиссёр: Эндрю Стэнтон / Andrew Stanton-В ролях: Тейлор Китч (John Carter), Линн Коллинз (Dejah Thoris), Саманта Мортон (Sola), Уиллем Дефо (Tars Tarkas), Томас Хейден Чёрч (Tal Hajus), Марк Стронг (Matai Shang), Кирен Хайдз (Tardos Mors), Доминик Уэст (Sab Than), Джеймс Пьюрфой (Kantos Kan), Брайан Крэнстон (Powell), Полли Уокер (Sarkoja), Дэрил Сабара (Edgar Rice Burroughs).-Описание:
Ветеран Гражданской войны в США Джон Картер против своей воли оказывается на Марсе, где попадает в плен к воинственным четырехметровым туземцам. Картеру предстоит не только спастись самому, но и спасти принцессу Дею Торис из Гелиума.
-6.8/10 (83230) 6.994 (31146)-Качество видео: BDRip (Исходник Dzhon.Karter.2012.MPEG-4-AVC.BluRay-Remux.1080p.mkv)
Формат файла: AVI-Видео: XviD, 720x304 (2.35:1), 23.976 fps, 1904 kbps avg, 0.363 bit/pixel
Аудио: 48 kHz, AC3 Dolby Digital, 3/2 (L,C,R,l,r) + LFE ch, 448 kbps avg (Rus DUB)
Формат субтитров: softsub (SRT)-

MediaInfo

Общее
Полное имя : D:\Torrent\John.Carter.2012.DUB.XviD.AC3.BDRip._by.ZNG505\John.Carter.2012.DUB.XviD.AC3.BDRip._by.ZNG505.avi
Формат : AVI
Формат/Информация : Audio Video Interleave
Профиль формата : OpenDML
Размер файла : 2,18 Гбайт
Продолжительность : 2 ч. 12 м.
Общий поток : 2364 Кбит/сек
Программа кодирования : VirtualDubModRus 1.5.10.2 (build 2542/release)
Библиотека кодирования : VirtualDubMod build 2542/release
Видео
Идентификатор : 0
Формат : MPEG-4 Visual
Профиль формата : Advanced Simple@L5
Параметр BVOP формата : 2
Параметр QPel формата : Нет
Параметр GMC формата : Без точки перехода
Параметр матрицы формата : Выборочная
Идентификатор кодека : XVID
Идентификатор кодека/Подсказка : XviD
Продолжительность : 2 ч. 12 м.
Битрейт : 1904 Кбит/сек
Ширина : 720 пикселей
Высота : 304 пикселя
Соотношение сторон : 2,35:1
Частота кадров : 23,976 кадра/сек
Цветовое пространство : YUV
Субдискретизация насыщенности : 4:2:0
Битовая глубина : 8 бит
Тип развёртки : Прогрессивная
Метод сжатия : С потерями
Бит/(Пиксели*Кадры) : 0.363
Размер потока : 1,76 Гбайт (81%)
Библиотека кодирования : XviD 65
Аудио
Идентификатор : 1
Формат : AC-3
Формат/Информация : Audio Coding 3
Расширение режима : CM (complete main)
Идентификатор кодека : 2000
Продолжительность : 2 ч. 12 м.
Вид битрейта : Постоянный
Битрейт : 448 Кбит/сек
Каналы : 6 каналов
Расположение каналов : Front: L C R, Side: L R, LFE
Частота : 48,0 КГц
Битовая глубина : 16 бит
Метод сжатия : С потерями
Размер потока : 423 Мбайт (19%)
Выравнивание : Разделение по промежуткам
Продолжительность промежутка : 42 мс. (1,00 видеокадр)
Время предзагрузки промежутка : 500 мс.
Заголовок : Rus DUB

Скриншот c названием фильма

Скриншоты

Скачать

Скачать торрент!

Как скачивать? · Что такое торрент? · Рейтинг и ограничения

Сайт не распространяет и не хранит электронные версии произведений, а лишь предоставляет доступ к создаваемому пользователями каталогу ссылок на торрент-файлы, которые содержат только списки хеш-сумм

[Профиль] [ЛС]
Показать сообщения:    
Ответить на тему

Текущее время: Сегодня 18:11

Часовой пояс: GMT + 4



Вы не можете начинать темы
Вы не можете отвечать на сообщения
Вы не можете редактировать свои сообщения
Вы не можете удалять свои сообщения
Вы не можете голосовать в опросах
Вы не можете прикреплять файлы к сообщениям
Вы не можете скачивать файлы