Гринго / El Gringo (Эдуардо Родригез / Eduardo Rodriguez) [2012, США, боевик, криминал, SATRip-AVC] VO (Vadim Yusupov) + Original Eng

Ответить на тему
 
Автор Сообщение

user ®

Стаж: 7 лет 7 месяцев

Сообщений: 20008

Пост Пост: #1 от 23-Авг-2012 09:46

[Цитировать]

Гринго / El Gringo
Страна: США
Производство: After Dark Films
Жанр: боевик, криминал
Год выпуска: 2012
Продолжительность: 01:42:03
Перевод: oдноголосый закадровый (Vadim Yusupov)
Cубтитры: нет
Оригинальная аудиодорожка: английский
Режиссер: Эдуардо Родригез / Eduardo Rodriguez
В ролях: Скотт Эдкинс, Кристиан Слэйтер, Ивет Йэтс, Израэль Ислас, София Сиснига
Описание: Cюжет фильма строится вокруг одного человека, американца, которому представилась возможность забрать сумку с нарко деньгами. Он пересекает мексиканскую границу с пулевым ранением руки и 2,3 млн. наличных с целью отправиться в туристический городок - Акапулько и отдохнуть на пляже. Но не всё так просто, ближайший населённый пункт - Фронтерас, кишит ворами и бандитами во главе с продажным шерифом.

Качество видео: SATRip-AVC / Исходник: SAT
Формат видео: MKV
Сэмпл: cкачать
Видео: MPEG4 AVC/H.264, 992x416 (2.40:1), 25fps, 2444 kbps
Аудио1: AC3 2ch, 48kHz, 192 kbps, русский одноголосый (закадровый)
Аудио2: AC3 2ch, 48kHz, 192 kbps, английский (оригинал)

MediaInfo

Общее
Уникальный идентификатор                 : 177681045875271057861770912436572205992 (0x85AC1FEB09595331B32439A102C533A8)
Полное имя                               : El Gringo (2012) VODScr.mkv
Формат                                   : Matroska
Версия формата                           : Version 2
Размер файла                             : 2,06 Гбайт
Продолжительность                        : 1 ч. 42 м.
Общий поток                              : 2885 Кбит/сек
Дата кодирования                         : UTC 2012-08-12 02:54:29
Программа кодирования                    : mkvmerge v5.5.0 ('Healer') built on Apr  6 2012 21:43:24
Библиотека кодирования                   : libebml v1.2.3 + libmatroska v1.3.0
Видео
Идентификатор                            : 1
Формат                                   : AVC
Формат/Информация                        : Advanced Video Codec
Профиль формата                          : Mаin@L3.0
Параметр CABAC формата                   : Да
Параметр ReFrames формата                : 2 кадра
Идентификатор кодека                     : V_MPEG4/ISO/AVC
Продолжительность                        : 1 ч. 42 м.
Битрейт                                  : 2444 Кбит/сек
Ширина                                   : 992 пикселя
Высота                                   : 416 пикселей
Соотношение сторон                       : 2,40:1
Режим частоты кадров                     : Постоянный
Частота кадров                           : 25,000 кадров/сек
Стандарт вещания                         : PAL
Цветовое пространство                    : YUV
Субдискретизация насыщенности            : 4:2:0
Битовая глубина                          : 8 бит
Тип развёртки                            : Прогрессивная
Бит/(Пиксели*Кадры)                      : 0.237
Размер потока                            : 1,74 Гбайт (85%)
Заголовок                                : El Gringo (2012) VODScreen
Default                                  : Да
Forced                                   : Нет
Аудио #1
Идентификатор                            : 2
Формат                                   : AC-3
Формат/Информация                        : Audio Coding 3
Расширение режима                        : CM (complete main)
Параметр Endianness формата              : Big
Идентификатор кодека                     : A_AC3
Продолжительность                        : 1 ч. 42 м.
Вид битрейта                             : Постоянный
Битрейт                                  : 192 Кбит/сек
Каналы                                   : 2 канала
Расположение каналов                     : Front: L R
Частота                                  : 48,0 КГц
Битовая глубина                          : 16 бит
Метод сжатия                             : С потерями
Размер потока                            : 140 Мбайт (7%)
Заголовок                                : Rus AC3 2ch - 192 kbps (Vadim Yusupov)
Язык                                     : Russian
Default                                  : Да
Forced                                   : Нет
Аудио #2
Идентификатор                            : 3
Формат                                   : AC-3
Формат/Информация                        : Audio Coding 3
Расширение режима                        : CM (complete main)
Параметр Endianness формата              : Big
Идентификатор кодека                     : A_AC3
Продолжительность                        : 1 ч. 42 м.
Вид битрейта                             : Постоянный
Битрейт                                  : 192 Кбит/сек
Каналы                                   : 2 канала
Расположение каналов                     : Front: L R
Частота                                  : 48,0 КГц
Битовая глубина                          : 16 бит
Метод сжатия                             : С потерями
Размер потока                            : 140 Мбайт (7%)
Заголовок                                : Eng AC3 2ch - 192 kbps (Original)
Язык                                     : English
Default                                  : Нет
Forced                                   : Нет

Скриншоты


Блин

Благодарности

Огромная благодарность за озвучку Vadim Yusupov , за составление релиза спасибо Rhea
Скачать

Скачать торрент!

Как скачивать? · Что такое торрент? · Рейтинг и ограничения

Сайт не распространяет и не хранит электронные версии произведений, а лишь предоставляет доступ к создаваемому пользователями каталогу ссылок на торрент-файлы, которые содержат только списки хеш-сумм

[Профиль] [ЛС]
Показать сообщения:    
Ответить на тему

Текущее время: Сегодня 18:24

Часовой пояс: GMT + 4



Вы не можете начинать темы
Вы не можете отвечать на сообщения
Вы не можете редактировать свои сообщения
Вы не можете удалять свои сообщения
Вы не можете голосовать в опросах
Вы не можете прикреплять файлы к сообщениям
Вы не можете скачивать файлы