Убийца из сказок / Zui hung (Дэнни Пан / Danny Pang) [2012 г., триллер, HDTVRip]

Ответить на тему
 
Автор Сообщение

Kraft2727 ®

Стаж: 4 года 6 месяцев

Сообщений: 454

Пост Пост: #1 от 29-Июл-2012 18:57

[Цитировать]

Убийца из сказок / Zui hung- Год выпуска: 2012
Страна: Гонконг
Жанр: триллер
Продолжительность: 01:33:56
Перевод: Одноголосый закадровый |den904|
Cубтитры: нет-Режиссер: Дэнни Пан / Danny Pang-В ролях: Лау Чинг-Ван, Ванг Баоканг, Лам Суэт, Кен Ло, Келли Фу, Феликс Лок- Новый китайский триллер про бесстрашного мужика- полицейского, который расследует убийства, совершенные по мотивам сказок.-Качество: HDRip
Исходник: Skazochnyj ubijca.mkv (720p)
Формат: AVI
Видео: XviD, 720x304, 1770 kbps, 24,000 fps
Аудио: AC-3, 6ch, 448 kbps, 48 kHz-

MediaInfo

Общее
Полное имя : H:\Ubiytca iz skazok.HDRip.cw.avi
Формат : AVI
Формат/Информация : Audio Video Interleave
Размер файла : 1,46 Гбайт
Продолжительность : 1 ч. 33 м.
Общий поток : 2227 Кбит/сек
Программа кодирования : VirtualDubModRus 1.5.10.2 (build 2542/release)
Библиотека кодирования : VirtualDubMod build 2542/release
Примечание : CW
Видео
Идентификатор : 0
Формат : MPEG-4 Visual
Профиль формата : Advanced Simple@L5
Параметр BVOP формата : 1
Параметр QPel формата : Нет
Параметр GMC формата : Без точки перехода
Параметр матрицы формата : Выборочная
Идентификатор кодека : XVID
Идентификатор кодека/Подсказка : XviD
Продолжительность : 1 ч. 33 м.
Битрейт : 1770 Кбит/сек
Ширина : 720 пикселей
Высота : 304 пикселя
Соотношение сторон : 2,35:1
Частота кадров : 24,000 кадра/сек
Цветовое пространство : YUV
Субдискретизация насыщенности : 4:2:0
Битовая глубина : 8 бит
Тип развёртки : Прогрессивная
Метод сжатия : С потерями
Бит/(Пиксели*Кадры) : 0.337
Размер потока : 1,16 Гбайт (79%)
Библиотека кодирования : XviD 1.2.1 (UTC 2008-12-04)
Аудио
Идентификатор : 1
Формат : AC-3
Формат/Информация : Audio Coding 3
Расширение режима : CM (complete main)
Параметр Endianness формата : Big
Идентификатор кодека : 2000
Продолжительность : 1 ч. 33 м.
Вид битрейта : Постоянный
Битрейт : 448 Кбит/сек
Каналы : 6 каналов
Расположение каналов : Front: L C R, Side: L R, LFE
Частота : 48,0 КГц
Битовая глубина : 16 бит
Метод сжатия : С потерями
Размер потока : 301 Мбайт (20%)
Выравнивание : Разделение по промежуткам
Продолжительность промежутка : 42 мс. (1,00 видеокадр)
Время предзагрузки промежутка : 500 мс.

Скриншоты

Скачать

Скачать торрент!

Как скачивать? · Что такое торрент? · Рейтинг и ограничения

Сайт не распространяет и не хранит электронные версии произведений, а лишь предоставляет доступ к создаваемому пользователями каталогу ссылок на торрент-файлы, которые содержат только списки хеш-сумм

[Профиль] [ЛС]
Показать сообщения:    
Ответить на тему

Текущее время: Сегодня 23:59

Часовой пояс: GMT + 4



Вы не можете начинать темы
Вы не можете отвечать на сообщения
Вы не можете редактировать свои сообщения
Вы не можете удалять свои сообщения
Вы не можете голосовать в опросах
Вы не можете прикреплять файлы к сообщениям
Вы не можете скачивать файлы