Мушкетеры / The Three Musketeers (Пол У. С. Андерсон / Paul W. S. Anderson) [2011, США / Германия / Франция / Великобритания, боевик, приключения, BDRip-AVC 720p] Dub + Sub Rus, Eng + Original Eng

Ответить на тему
 
Автор Сообщение

user ®

Стаж: 7 лет 7 месяцев

Сообщений: 20008

Пост Пост: #1 от 20-Июл-2012 22:33

[Цитировать]

Мушкетеры / The Three Musketeers
Страна: США / Германия / Франция / Великобритания
Жанр: Боевик, приключения
Год выпуска: 2011
Продолжительность: 01:50:00
Перевод: Профессиональный (дублированный)
Cубтитры: русские, английские
Оригинальная аудиодорожка: английский
Режиссер: Пол У. С. Андерсон / Paul W.S. Anderson
В ролях: Логан Лерман, Милла Йовович, Мэтью Макфейден, Рэй Стивенсон, Люк Эванс, Орландо Блум, Кристоф Вальц, Мадс Миккельсен, Габриэлла Уайлд, Джеймс Корден, Джуно Темпл, Фредди Фокс, Тиль Швайгер...
Описание: Молодой д’Артаньян покинул родной дом и отправился в Париж, надеясь на место в полку мушкетёров. По случайности в один день он обидел сразу троих мушкетёров — Атоса, Портоса и Арамиса — и получил от всех троих вызовы на дуэль.
Но дуэль была прервана появлением гвардейцев кардинала, которые хотели арестовать их за нарушение указа о запрете дуэлей. Д’Артаньян и три мушкетера победили превосходящего противника и стали друзьями. Теперь они должны остановить злобного Кардинала Ришелье и столкнутся с герцогом Бэкингемом, и предательницей Миледи Де Винтер.
Сэмпл
Качество видео: BDRip-AVC / The Three Musketeers 2011 1080p Blu-ray Ger AVC DTS-HD HR 5.1
Формат видео: MKV
Видео: 1280 x 544 (2.353) at 23.976 fps,AVC at 2372 Кбит/сек
Аудио: AC-3 at 448 Кбит/сек,6 канала(ов), 48,0 КГц,[rus]
Аудио 2: AC-3 at 448 Кбит/сек,6 канала(ов), 48,0 КГц,[eng] Внешняя
Формат субтитров: softsub (SRT)Торрент фаил перезалит:замена видеоряда

MediaInfo

Общее
Полное имя : F:\Musketery.2011.BDRip-AVC-720p\Musketery.2011.BDRip-AVC-720p.mkv
Формат : Matroska
Размер файла : 2,18 Гбайт
Продолжительность : 1 ч. 50 м.
Общий поток : 2821 Кбит/сек
Дата кодирования : UTC 2012-02-10 10:42:45
Программа кодирования : mkvmerge v5.0.1 ('Es ist Sommer') built on Oct 24 2011 19:45:06
Библиотека кодирования : libebml v1.2.2 + libmatroska v1.3.0
Видео
Идентификатор : 1
Формат : AVC
Формат/Информация : Advanced Video Codec
Профиль формата : High@L4.1
Параметр CABAC формата : Да
Параметр ReFrames формата : 11 кадры
Идентификатор кодека : V_MPEG4/ISO/AVC
Продолжительность : 1 ч. 50 м.
Битрейт : 2372 Кбит/сек
Ширина : 1280 пикс.
Высота : 544 пикс.
Соотношение сторон : 2,35:1
Частота кадров : 23,976 кадр/сек
Цветовое пространство : YUV
Подвыборка цветности : 4:2:0
Битовая глубина : 8 бит
Тип развёртки : Прогрессивная
Бит/(Пиксели*Кадры) : 0.142
Размер потока : 1,79 Гбайт (82%)
Библиотека кодирования : x264 core 118 r2085 8a62835
Настройки программы : cabac=1 / ref=11 / deblock=1:-3:-2 / analyse=0x3:0x133 / me=umh / subme=10 / psy=1 / psy_rd=1.00:0.05 / mixed_ref=1 / me_range=32 / chroma_me=1 / trellis=2 / 8x8dct=1 / cqm=0 / deadzone=21,11 / fast_pskip=0 / chroma_qp_offset=-3 / threads=12 / sliced_threads=0 / nr=0 / decimate=1 / interlaced=0 / bluray_compat=0 / constrained_intra=0 / bframes=8 / b_pyramid=2 / b_adapt=2 / b_bias=0 / direct=3 / weightb=1 / open_gop=0 / weightp=2 / keyint=250 / keyint_min=23 / scenecut=40 / intra_refresh=0 / rc_lookahead=70 / rc=2pass / mbtree=1 / bitrate=2372 / ratetol=1.0 / qcomp=0.60 / qpmin=0 / qpmax=69 / qpstep=4 / cplxblur=20.0 / qblur=0.5 / ip_ratio=1.40 / aq=1:1.00
Язык : English
Аудио
Идентификатор : 2
Формат : AC-3
Формат/Информация : Audio Coding 3
Расширение режима : CM (complete main)
Идентификатор кодека : A_AC3
Продолжительность : 1 ч. 50 м.
Вид битрейта : Постоянный
Битрейт : 448 Кбит/сек
Канал(ы) : 6 канала(ов)
Расположение каналов : Front: L C R, Side: L R, LFE
Частота : 48,0 КГц
Битовая глубина : 16 бит
Метод сжатия : С потерями
Размер потока : 354 Мбайт (16%)
Заголовок : dub
Язык : Russian
Текст #1
Идентификатор : 3
Формат : UTF-8
Идентификатор кодека : S_TEXT/UTF8
Идентификатор кодека/Информация : UTF-8 Plain Text
Язык : Russian
Текст #2
Идентификатор : 4
Формат : UTF-8
Идентификатор кодека : S_TEXT/UTF8
Идентификатор кодека/Информация : UTF-8 Plain Text
Язык : English
Меню
00:00:00.000 : :Chapter 01
00:06:09.785 : :Chapter 02
00:12:20.405 : :Chapter 03
00:17:31.592 : :Chapter 04
00:23:52.180 : :Chapter 05
00:31:28.678 : :Chapter 06
00:35:56.487 : :Chapter 07
00:42:31.547 : :Chapter 08
00:47:04.612 : :Chapter 09
00:53:17.319 : :Chapter 10
00:59:14.634 : :Chapter 11
01:04:40.042 : :Chapter 12
01:08:33.109 : :Chapter 13
01:14:24.417 : :Chapter 14
01:21:04.609 : :Chapter 15
01:27:36.917 : :Chapter 16
01:36:09.680 : :Chapter 17
01:42:27.432 : :Chapter 18
01:50:31.458 : :Chapter 19

Скриншоты

Скачать

Скачать торрент!

Как скачивать? · Что такое торрент? · Рейтинг и ограничения

Сайт не распространяет и не хранит электронные версии произведений, а лишь предоставляет доступ к создаваемому пользователями каталогу ссылок на торрент-файлы, которые содержат только списки хеш-сумм

[Профиль] [ЛС]
Показать сообщения:    
Ответить на тему

Текущее время: Сегодня 02:16

Часовой пояс: GMT + 4



Вы не можете начинать темы
Вы не можете отвечать на сообщения
Вы не можете редактировать свои сообщения
Вы не можете удалять свои сообщения
Вы не можете голосовать в опросах
Вы не можете прикреплять файлы к сообщениям
Вы не можете скачивать файлы