Служу Советскому Союзу (Александр Устюгов) [2012, драма, DVB]

Ответить на тему
 
Автор Сообщение

user ®

Стаж: 8 лет 7 месяцев

Сообщений: 20007

Пост Пост: #1 от 19-Июн-2012 09:13

[Цитировать]

Служу Советскому Союзу / СССР. Служу трудовому народу (2 серии)
Жанр: драма
Год выпуска: 2012
Продолжительность: 00:43:45 + 00:51:48
Субтитры: украинские (вшитые)-Режиссёр: Александр Устюгов-В ролях: Максим Аверин, Нонна Гришаева, Юрий Ницков, Сергей Перегудов, Сергей Уманов, Дмитрий Поднозов, Олег Алмазов, Алексей Блохин-Описание: Фильм повествует о событиях, происходивших перед Великой Отечественной войной и в первые дни войны на лесоповале, в советском лагере, находившемся на побережье Белого моря. Среди зэков есть один по кличке Комиссар - бывший главный редактор газеты "Трудовой народ" Михаил Донцов. До лагеря у него было всё - война в Испании и написанная об этом книга, ответственный пост, хорошая квартира, личный автомобиль, любимая женщина - актриса и певица, красавица Таисия Мещерская. Был у Донцова и соперник, также добивавшийся внимания актрисы, - нарком внутренних дел СССР Лаврентий Берия... Теперь не осталось ничего, кроме лагеря и тяжкой работы. Газет заключенным не дают. О том, что началась война, они узнают из случайного обрывка. В этот же день в лагерь прибывает этап с артистами. Среди них находится и Таисия. А вскоре в лагере появляются фашисты...-Доп. информация: По роману Леонида Менакера "Обед с дьяволом".
Релиз: RiperAM & Хоттаб-Семпл: http://multi-up.com/657797-Качество видео: DVB
Формат видео: MPG-Видео 1с: MPEG2 Video 704x576 (4:3) 25.00fps 2574 Kbps
Видео 2с: MPEG2 Video 704x576 (4:3) 25.00fps 2674 Kbps
Аудио: MPEG Audio 48000Hz 2 channels 192 Кбит/сек
-

MI 1 серия

General
Format : MPEG-PS
File size : 883 MiB
Duration : 43mn 45s
Overall bit rate : 2 823 Kbps
Writing library : (c) 1998-2010 Womble Multimedia, Inc. / MPEG Video Wizard DVD 5.0.0.114 (01/2010) / Sep 13 2010
Video
ID : 224 (0xE0)
Format : MPEG Video
Format version : Version 2
Format profile : Main@Main
Format settings, BVOP : Yes
Format settings, Matrix : Default
Format settings, GOP : M=1, N=29
Duration : 43mn 45s
Bit rate mode : Variable
Bit rate : 2 574 Kbps
Nominal bit rate : 15.0 Mbps
Width : 704 pixels
Height : 576 pixels
Display aspect ratio : 4:3
Frame rate : 25.000 fps
Standard : PAL
Color space : YUV
Chroma subsampling : 4:2:0
Bit depth : 8 bits
Scan type : Interlaced
Scan order : Top Field First
Bits/(Pixel*Frame) : 0.254
Stream size : 806 MiB (91%)
Writing library : (c) 1998-2010 Womble Multimedia, Inc. / MPEG Video Wizard DVD 5.0.0.114 (01/2010) / Sep 13 2010
Audio
ID : 192 (0xC0)
Format : MPEG Audio
Format version : Version 1
Format profile : Layer 2
Duration : 43mn 45s
Bit rate mode : Constant
Bit rate : 192 Kbps
Channel(s) : 2 channels
Sampling rate : 48.0 KHz
Stream size : 60.1 MiB (7%)

MI 2 серия

General
Format : MPEG-PS
File size : 1.06 GiB
Duration : 51mn 48s
Overall bit rate : 2 924 Kbps
Writing library : (c) 1998-2010 Womble Multimedia, Inc. / MPEG Video Wizard DVD 5.0.0.114 (01/2010) / Sep 13 2010
Video
ID : 224 (0xE0)
Format : MPEG Video
Format version : Version 2
Format profile : Main@Main
Format settings, BVOP : No
Format settings, Matrix : Default
Format settings, GOP : M=1, N=28
Duration : 51mn 48s
Bit rate mode : Variable
Bit rate : 2 674 Kbps
Nominal bit rate : 15.0 Mbps
Width : 704 pixels
Height : 576 pixels
Display aspect ratio : 4:3
Frame rate : 25.000 fps
Standard : PAL
Color space : YUV
Chroma subsampling : 4:2:0
Bit depth : 8 bits
Scan type : Interlaced
Scan order : Top Field First
Bits/(Pixel*Frame) : 0.264
Stream size : 991 MiB (91%)
Writing library : (c) 1998-2010 Womble Multimedia, Inc. / MPEG Video Wizard DVD 5.0.0.114 (01/2010) / Sep 13 2010
Audio
ID : 192 (0xC0)
Format : MPEG Audio
Format version : Version 1
Format profile : Layer 2
Duration : 51mn 48s
Bit rate mode : Constant
Bit rate : 192 Kbps
Channel(s) : 2 channels
Sampling rate : 48.0 KHz
Stream size : 71.1 MiB (7%)

Скриншот c названием фильма

Скриншоты

Скачать

Скачать торрент!

Как скачивать? · Что такое торрент? · Рейтинг и ограничения

Сайт не распространяет и не хранит электронные версии произведений, а лишь предоставляет доступ к создаваемому пользователями каталогу ссылок на торрент-файлы, которые содержат только списки хеш-сумм

[Профиль] [ЛС]
Показать сообщения:    
Ответить на тему

Текущее время: Сегодня 12:34

Часовой пояс: GMT + 4



Вы не можете начинать темы
Вы не можете отвечать на сообщения
Вы не можете редактировать свои сообщения
Вы не можете удалять свои сообщения
Вы не можете голосовать в опросах
Вы не можете прикреплять файлы к сообщениям
Вы не можете скачивать файлы