Лучшая жизнь / A Better Life (Крис Вайц / Chris Weitz) [2011, драма, BDRip-AVC] Dub + Sub (rus, eng)

Ответить на тему
 
Автор Сообщение

user ®

Стаж: 7 лет 7 месяцев

Сообщений: 20008

Пост Пост: #1 от 19-Июн-2012 08:48

[Цитировать]

Лучшая жизнь / A Better Life«Вырвать у судьбы шанс» Страна: США
Жанр: драма
Год выпуска: 2011
Продолжительность: 01:37:30
Перевод: Профессиональный (дублированный)
Cубтитры: русские, английские
Режиссер: Крис Вайц / Chris Weitz
В ролях: Демиан Бишир, Эдди ’Пайолин’ Сотело, Хоакин Косио, Хосе Джулиан, Нэнси Ленехан, Гэбриел Чаварриа, Бобби Сото, Челси Рендон, Трампас Томпсон, Тим Гриффин...
Описание: Трогательная, проникновенная история о том, как далеко может зайти человек, чтобы вырвать у судьбы шанс на лучшую жизнь для своих близких. Иммиграционные агенты и бандитские группировки - все против него. Но в борьбе за судьбу ребенка любящий родитель готов пройти через невозможное… Ему слишком хорошо известно, как легко в этом городе потерять все и сразу.
Исходник: BDRemux 1080p
Качество видео: BDRip-AVC
Формат видео: MKV
Видео: H264, 1024x576, (16:9), ~ 1756kbps, 23,976fps, ~0,124bit/pixel
Аудио: AC-3, 48000Hz, 384Кбит/сек, 6ch- -

MediaInfо

Общее
Уникальный идентификатор : 235053427663946446522248889333795549262 (0xB0D5A4BB8E7800A687AE9AE97FEC704E)
Полное имя : K:\КИНО 2\A Better Life\A Better Life 1.46.BDRip-AVC.mkv
Формат : Matroska
Версия формата : Version 2
Размер файла : 1,46 Гбайт
Продолжительность : 1 ч. 37 м.
Общий поток : 2139 Кбит/сек
Название фильма : A Better Life 1.46.BDRip-AVC[Rip Mitia-ia]
Дата кодирования : UTC 2012-04-27 19:10:53
Программа кодирования : mkvmerge v5.5.0 ('Healer') built on Apr 6 2012 21:43:24
Библиотека кодирования : libebml v1.2.3 + libmatroska v1.3.0
Видео
Идентификатор : 1
Формат : AVC
Формат/Информация : Advanced Video Codec
Профиль формата : High@L4.1
Параметр CABAC формата : Да
Параметр ReFrames формата : 13 кадров
Идентификатор кодека : V_MPEG4/ISO/AVC
Продолжительность : 1 ч. 37 м.
Битрейт : 1756 Кбит/сек
Ширина : 1024 пикселя
Высота : 576 пикселей
Соотношение сторон : 16:9
Частота кадров : 23,976 кадра/сек
Цветовое пространство : YUV
Субдискретизация насыщенности : 4:2:0
Битовая глубина : 8 бит
Тип развёртки : Прогрессивная
Бит/(Пиксели*Кадры) : 0.124
Размер потока : 1,17 Гбайт (80%)
Библиотека кодирования : x264 core 119 r2106 07efeb4
Настройки программы : cabac=1 / ref=13 / deblock=1:-2:-1 / analyse=0x3:0x133 / me=umh / subme=11 / psy=1 / psy_rd=1.00:0.10 / mixed_ref=1 / me_range=32 / chroma_me=1 / trellis=2 / 8x8dct=1 / cqm=0 / deadzone=21,11 / fast_pskip=0 / chroma_qp_offset=-3 / threads=3 / sliced_threads=0 / nr=0 / decimate=1 / interlaced=0 / bluray_compat=0 / constrained_intra=0 / bframes=13 / b_pyramid=2 / b_adapt=2 / b_bias=0 / direct=3 / weightb=1 / open_gop=0 / weightp=2 / keyint=240 / keyint_min=23 / scenecut=40 / intra_refresh=0 / rc=2pass / mbtree=0 / bitrate=1756 / ratetol=1.0 / qcomp=0.60 / qpmin=0 / qpmax=69 / qpstep=4 / cplxblur=20.0 / qblur=0.5 / ip_ratio=1.40 / pb_ratio=1.30 / aq=1:1.00
Язык : English
Default : Да
Forced : Да
Аудио
Идентификатор : 2
Формат : AC-3
Формат/Информация : Audio Coding 3
Расширение режима : CM (complete main)
Идентификатор кодека : A_AC3
Продолжительность : 1 ч. 37 м.
Вид битрейта : Постоянный
Битрейт : 384 Кбит/сек
Каналы : 6 каналов
Расположение каналов : Front: L C R, Side: L R, LFE
Частота : 48,0 КГц
Битовая глубина : 16 бит
Метод сжатия : С потерями
Размер потока : 268 Мбайт (18%)
Язык : Russian
Default : Да
Forced : Нет
Текст #1
Идентификатор : 3
Формат : UTF-8
Идентификатор кодека : S_TEXT/UTF8
Идентификатор кодека/Информация : UTF-8 Plain Text
Заголовок : R5
Язык : Russian
Default : Нет
Forced : Нет
Текст #2
Идентификатор : 4
Формат : UTF-8
Идентификатор кодека : S_TEXT/UTF8
Идентификатор кодека/Информация : UTF-8 Plain Text
Язык : English
Default : Нет
Forced : Нет

Скриншоты

Лог Кодирования

x264 [info]: frame I:1097 Avg QP:16.24 size: 79759
x264 [info]: frame P:27671 Avg QP:19.20 size: 20340
x264 [info]: frame B:111509 Avg QP:21.87 size: 5669
x264 [info]: consecutive B-frames: 2.0% 1.3% 3.9% 17.9% 17.8% 35.4% 7.7% 6.4% 1.9% 0.6% 3.2% 1.3% 0.3% 0.2%
x264 [info]: mb I I16..4: 16.7% 65.7% 17.6%
x264 [info]: mb P I16..4: 0.8% 6.3% 0.9% P16..4: 32.1% 36.5% 10.2% 2.8% 0.2% skip:10.4%
x264 [info]: mb B I16..4: 0.1% 0.4% 0.1% B16..8: 37.7% 17.2% 2.4% direct: 2.8% skip:39.3% L0:44.4% L1:48.4% BI: 7.1%
x264 [info]: 8x8 transform intra:74.3% inter:61.4%
x264 [info]: direct mvs spatial:98.8% temporal:1.2%
x264 [info]: coded y,uvDC,uvAC intra: 85.3% 83.9% 65.4% inter: 14.8% 12.1% 2.3%
x264 [info]: i16 v,h,dc,p: 36% 11% 18% 35%
x264 [info]: i8 v,h,dc,ddl,ddr,vr,hd,vl,hu: 8% 7% 8% 10% 15% 14% 13% 12% 13%
x264 [info]: i4 v,h,dc,ddl,ddr,vr,hd,vl,hu: 11% 8% 6% 9% 15% 14% 13% 12% 13%
x264 [info]: i8c dc,h,v,p: 45% 20% 18% 17%
x264 [info]: Weighted P-Frames: Y:6.7% UV:3.6%
x264 [info]: ref P L0: 48.5% 7.8% 15.6% 7.2% 5.4% 4.1% 3.4% 1.9% 1.6% 1.4% 1.2% 1.0% 0.9% 0.1% 0.0%
x264 [info]: ref B L0: 71.2% 12.9% 5.8% 2.9% 2.1% 1.6% 1.3% 0.7% 0.6% 0.5% 0.3% 0.1%
x264 [info]: ref B L1: 92.6% 7.4%
x264 [info]: kb/s:1753.60
Скачать

Скачать торрент!

Как скачивать? · Что такое торрент? · Рейтинг и ограничения

Сайт не распространяет и не хранит электронные версии произведений, а лишь предоставляет доступ к создаваемому пользователями каталогу ссылок на торрент-файлы, которые содержат только списки хеш-сумм

[Профиль] [ЛС]
Показать сообщения:    
Ответить на тему

Текущее время: Сегодня 23:51

Часовой пояс: GMT + 4



Вы не можете начинать темы
Вы не можете отвечать на сообщения
Вы не можете редактировать свои сообщения
Вы не можете удалять свои сообщения
Вы не можете голосовать в опросах
Вы не можете прикреплять файлы к сообщениям
Вы не можете скачивать файлы