Путь мести / Sacrifice (Дамиан Ли / Damian Lee) [2011, США, боевик, триллер, HDRip] DVO

Ответить на тему
 
Автор Сообщение

user ®

Стаж: 7 лет 7 месяцев

Сообщений: 20008

Пост Пост: #1 от 19-Июн-2012 08:48

[Цитировать]

Путь мести / Sacrifice
Страна: США
Жанр: боевик, триллер
Год выпуска: 2011
Продолжительность: 01:40:00
Перевод: Любительский (двухголосый закадровый)
Cубтитры: нет
Режиссер: Дамиан Ли / Damian Lee
В ролях: Кьюба Гудинг мл., Кристиан Слэйтер, Девон Бостик, Ким Коутс, Лара Даанс, Питер Майкл Диллон, Сэнди Келлерман, Аркадия Ли
Описание: У полицейского погибает жена и ребенок от рук мафии. Он бросается в неравную борьбу с преступным миром, пытаясь добраться до главы наркоторгового синдиката. Его друг священник пытается помочь ему остаться при этом не только хорошим полицейским, но и хорошим человеком.
Исходник: ( Put.mesti.2011.Rus.Eng.720p.BDRip.x264.FireBit )
Размер: 1/6 DVD
Качество видео: HDRip \\\Совместим с бытовыми DVD///
Формат видео: AVI
Видео: 640x272 (2.35:1), 23.976 fps, XviD build 62 ~913 kbps avg, 0.22 bit/pixel
Аудио: 48 kHz, MPEG Layer 3, 2 ch, ~128.00 kbps avgРейтинг R - Детям до 17 лет обязательно присутствие родителей

MediaInfo

General
Complete name : C:\Documents and Settings\Администратор\Рабочий стол\Sacrifice.2011.HDRip_Drek.avi
Format : AVI
Format/Info : Audio Video Interleave
File size : 747 MiB
Duration : 1h 39mn
Overall bit rate : 1 051 Kbps
Movie name : Sacrifice
Director : HDRip by Дрек
Genre : Action
Writing application : VirtualDubModRus 1.5.10.2 (build 2542/release)
Original source form/Name : Movie
Video
ID : 0
Format : MPEG-4 Visual
Format profile : Advanced Simple@L5
Format settings, BVOP : Yes
Format settings, QPel : No
Format settings, GMC : No warppoints
Format settings, Matrix : Default (MPEG)
Codec ID : XVID
Codec ID/Hint : XviD
Duration : 1h 39mn
Bit rate : 914 Kbps
Width : 640 pixels
Height : 272 pixels
Display aspect ratio : 2.35:1
Frame rate : 23.976 fps
Resolution : 8 bits
Colorimetry : 4:2:0
Scan type : Progressive
Bits/(Pixel*Frame) : 0.219
Stream size : 650 MiB (87%)
Writing library : XviD 62
Audio
ID : 1
Format : MPEG Audio
Format version : Version 1
Format profile : Layer 3
Codec ID : 55
Codec ID/Hint : MP3
Duration : 1h 39mn
Bit rate mode : Constant
Bit rate : 128 Kbps
Channel(s) : 2 channels
Sampling rate : 48.0 KHz
Stream size : 91.0 MiB (12%)
Alignment : Aligned on interleaves
Interleave, duration : 42 ms (1.00 video frame)
Interleave, preload duration : 504 ms
Writing library : LAME3.98r
Encoding settings : -m s -V 4 -q 2 -lowpass 17 -b 128

Скриншот c названием фильма

Скриншоты

Скачать

Скачать торрент!

Как скачивать? · Что такое торрент? · Рейтинг и ограничения

Сайт не распространяет и не хранит электронные версии произведений, а лишь предоставляет доступ к создаваемому пользователями каталогу ссылок на торрент-файлы, которые содержат только списки хеш-сумм

[Профиль] [ЛС]
Показать сообщения:    
Ответить на тему

Текущее время: Сегодня 19:35

Часовой пояс: GMT + 4



Вы не можете начинать темы
Вы не можете отвечать на сообщения
Вы не можете редактировать свои сообщения
Вы не можете удалять свои сообщения
Вы не можете голосовать в опросах
Вы не можете прикреплять файлы к сообщениям
Вы не можете скачивать файлы