Между / Twixt (Френсис Форд Коппола / Francis Ford Coppola) [2011, США, ужасы, фэнтези, триллер, HDRip] Dub [Лицензия]

Ответить на тему
 
Автор Сообщение

user ®

Стаж: 7 лет 7 месяцев

Сообщений: 20008

Пост Пост: #1 от 19-Июн-2012 08:48

[Цитировать]

Между / Twixt«Он отведёт тебя в мир духов и вампиров»- Страна: США / American Zoetrope
Жанр: ужасы, фэнтези, триллер
Год выпуска: 2011
Продолжительность: 01:28:07-Перевод: Профессиональный (дублированный) [лицензия]
Cубтитры: нет-Режиссер: Френсис Форд Коппола / Francis Ford Coppola-В ролях: Вэл Килмер, Брюс Дерн, Эль Фаннинг, Бен Чаплин, Энтони Фуско, Олден Эйренрайк, Дэвид Пэймер, Джоэнн Уэлли, Дон Новелло, Райан Симпкинс-Описание: Потерявший вдохновение писатель пытается разгадать серию загадочных убийств в захолустный городке. Во сне ему с завидным упорством является призрак окровавленной девочки, которая пытается сообщить ему страшную тайну. Возможно, распутав цепь странных событий, писатель сможет, наконец, преодолеть кризис и создать новую книгу - о вампирах, потустороннем мире и легендарном Эдгаре Аллане По.-Качество видео: HDRip
Формат видео: AVI-Видео: 720x368 (1.96:1), 23.976 fps, XviD build 50 ~1769 kbps avg, 0.28 bit/pixel
Аудио: 48 kHz, AC3 Dolby Digital, 3/2 (L,C,R,l,r) + LFE ch, ~448 kbps- -

MediaInfo

D:\Filmi\Mezhdu.2011.HDRip.avi General Complete name : D:\Filmi\Mezhdu.2011.HDRip.avi Format : AVI Format/Info : Audio Video Interleave File size : 1.37 GiB Duration : 1h 28mn Overall bit rate : 2 226 Kbps Movie name : Mejdu.2011.D.HDRip.IRONCLUB Writing application : VirtualDubMod 1.5.10.3 | www.virtualdub-fr.org || (build 2550/release) Video #0 ID : 0 Format : MPEG-4 Visual Format profile : Advanced Simple@L5 Format settings, BVOP : 2 Format settings, QPel : No Format settings, GMC : No warppoints Format settings, Matrix : Custom Codec ID : XVID Codec ID/Hint : XviD Duration : 1h 28mn Bit rate : 1 769 Kbps Width : 720 pixels Height : 368 pixels Display aspect ratio : 1.957 Frame rate : 23.976 fps Color space : YUV Chroma subsampling : 4:2:0 Bit depth : 8 bits Scan type : Progressive Compression mode : Lossy Bits/(Pixel*Frame) : 0.278 Stream size : 1.09 GiB (79%) Writing library : XviD 1.2.1 (UTC 2008-12-04) Audio #1 ID : 1 Format : AC-3 Format/Info : Audio Coding 3 Mode extension : CM (complete main) Codec ID : 2000 Duration : 1h 28mn Bit rate mode : Constant Bit rate : 448 Kbps Channel(s) : 6 channels Channel positions : Front: L C R, Side: L R, LFE Sampling rate : 48.0 KHz Bit depth : 16 bits Compression mode : Lossy Stream size : 282 MiB (20%) Alignment : Split accross interleaves Interleave, duration : 42 ms (1.00 video frame) Interleave, preload duration : 500 ms

Скриншоты

Скачать

Скачать торрент!

Как скачивать? · Что такое торрент? · Рейтинг и ограничения

Сайт не распространяет и не хранит электронные версии произведений, а лишь предоставляет доступ к создаваемому пользователями каталогу ссылок на торрент-файлы, которые содержат только списки хеш-сумм

[Профиль] [ЛС]
Показать сообщения:    
Ответить на тему

Текущее время: Сегодня 13:36

Часовой пояс: GMT + 4



Вы не можете начинать темы
Вы не можете отвечать на сообщения
Вы не можете редактировать свои сообщения
Вы не можете удалять свои сообщения
Вы не можете голосовать в опросах
Вы не можете прикреплять файлы к сообщениям
Вы не можете скачивать файлы