Перевал Ангелов / Герб Ангелов / Angels Crest (Gaby Dellal / Гэби Диллал) [2011, Канада, Великобритания, драма, BDRip] VO (Сергей Калугин) + Sub Rus + Original Eng

Ответить на тему
 
Автор Сообщение

user ®

Стаж: 7 лет 7 месяцев

Сообщений: 20008

Пост Пост: #1 от 19-Июн-2012 08:48

[Цитировать]

Перевал Ангелов / Герб Ангелов / Angels Crest
Страна: Канада, Великобритания
Жанр: драма
Год выпуска: 2011
Продолжительность: 01:33:19
Перевод: Одноголосый закадровый, студия "Райдо"/ Сергей Калугин
Cубтитры: русские, английские, испанские (внешние)
Оригинальная аудиодорожка: английский (вшитая)

Режиссер: Gaby Dellal/ Гэби Диллал
В ролях: Томас Деккер, Мира Сорвино, Линн Коллинз, Дейв Браун, Грег Лоусон, Эмма МакКиллрой, Марти Антонини
Описание: Рано или поздно, в течение своей жизни, человек оказывается в ужасной ситуации. В такой, что даже представить себя в ней не может до тех пор, пока слепая судьба не столкнет тебя лицом к лицу с невиданным горем. При этом многие люди вокруг могут лишь сочувственно покачать головой и пробормотать: «Врагу такого не пожелаешь».
Вот и главный герой фильма, парень Итан (Томас Деккер), ни о чем таком не подозревал, когда ехал вместе со своим маленьким сыном Нейтом любоваться первым снегом.
Доп. информация: Совершенно непонятно почему фильм на КиноПоиске перевели как "Герб Ангела", если речь идёт о названии деревушки, затерянной в горах... И если уж переводить на русский язык её топонимику, Энджелз Крест, а это очень не рекомендуют делать переводчики, то должно звучать, как "Кряж Ангелов", "Хребет Ангелов" или "Перевал Ангелов". Последний вариант показался мне наиболее простым для восприятия.
Премьеры были в США, Великобритании и Канаде. В России фильм не выходил.
Сэмпл: http://multi-up.com/701313
Сэмпл онлайн: можно посмотреть тут
Качество видео: BDRip
Формат видео: AVI
Видео: DivX, 720x304, 2.35:1, 23.976 fps, 1 709 Kbps
Аудио: MP3, 48.0KHz, 192kbps, 2ch, русский язык
Аудио 2: MP3, 48.0KHz, 192kbps, 2ch, английский язык
Формат субтитров: softsub (SRT)
Доп. информация о субтитрах: Перевод: aletdin (Нотабеноид)

MediaInfo

E:\Киношка\Angels Crest 2011.avi
General
Complete name : E:\Киношка\Angels Crest 2011.avi
Format : AVI
Format/Info : Audio Video Interleave
File size : 1.37 GiB
Duration : 1h 33mn
Overall bit rate : 2 107 Kbps
Writing application : VirtualDubMod 1.5.10.2 (build 2540/release)
Writing library : VirtualDubMod build 2540/release
Video #0
ID : 0
Format : MPEG-4 Visual
Format profile : Advanced Simple@L5
Format settings, BVOP : 1
Format settings, QPel : No
Format settings, GMC : No warppoints
Format settings, Matrix : Default (MPEG)
Codec ID : DX50
Codec ID/Hint : DivX 5
Duration : 1h 33mn
Bit rate : 1 709 Kbps
Width : 720 pixels
Height : 304 pixels
Display aspect ratio : 2.35:1
Frame rate : 23.976 fps
Color space : YUV
Chroma subsampling : 4:2:0
Bit depth : 8 bits
Scan type : Progressive
Compression mode : Lossy
Bits/(Pixel*Frame) : 0.326
Stream size : 1.11 GiB (81%)
Writing library : XviD 1.2.1 (UTC 2008-12-04)
Audio #1
ID : 1
Format : MPEG Audio
Format version : Version 1
Format profile : Layer 3
Mode : Joint stereo
Codec ID : 55
Codec ID/Hint : MP3
Duration : 1h 33mn
Bit rate mode : Constant
Bit rate : 192 Kbps
Channel(s) : 2 channels
Sampling rate : 48.0 KHz
Compression mode : Lossy
Stream size : 128 MiB (9%)
Alignment : Aligned on interleaves
Interleave, duration : 42 ms (1.00 video frame)
Interleave, preload duration : 504 ms
Audio #2
ID : 2
Format : MPEG Audio
Format version : Version 1
Format profile : Layer 3
Codec ID : 55
Codec ID/Hint : MP3
Duration : 1h 33mn
Bit rate mode : Constant
Bit rate : 192 Kbps
Channel(s) : 2 channels
Sampling rate : 48.0 KHz
Compression mode : Lossy
Stream size : 128 MiB (9%)
Alignment : Aligned on interleaves
Interleave, duration : 42 ms (1.00 video frame)
Interleave, preload duration : 504 ms
Writing library : LAME3.99.1

Скриншот c названием фильма

Скриншоты

Скачать

Скачать торрент!

Как скачивать? · Что такое торрент? · Рейтинг и ограничения

Сайт не распространяет и не хранит электронные версии произведений, а лишь предоставляет доступ к создаваемому пользователями каталогу ссылок на торрент-файлы, которые содержат только списки хеш-сумм

[Профиль] [ЛС]
Показать сообщения:    
Ответить на тему

Текущее время: Сегодня 18:12

Часовой пояс: GMT + 4



Вы не можете начинать темы
Вы не можете отвечать на сообщения
Вы не можете редактировать свои сообщения
Вы не можете удалять свои сообщения
Вы не можете голосовать в опросах
Вы не можете прикреплять файлы к сообщениям
Вы не можете скачивать файлы