Дети сексу не помеха / Friends with Kids (Дженнифер Уэстфелд / Jennifer Westfeldt) [2011, США, комедия, BDRip] DUB

Ответить на тему
 
Автор Сообщение

user ®

Стаж: 7 лет 7 месяцев

Сообщений: 20008

Пост Пост: #1 от 31-Май-2012 10:19

[Цитировать]

Дети сексу не помеха / Friends with Kids«Family doesn't always go according to plan.»- Страна: США
Жанр: комедия
Год выпуска: 2011
Продолжительность: 01:48:30
Перевод: Профессиональный (полное дублирование) - Лицензия
Субтитры: нет
Режиссер: Дженнифер Уэстфелд / Jennifer Westfeldt
В ролях: Адам Скотт, Дженнифер Уэстфелд, Джон Хэмм, Кристен Уиг, Майя Рудольф, Криc О’Дауд, Меган Фокс, Эдвард Бёрнс, Оуэн Бенто, Келли Бишоп...
Описание: Есть ли секс после свадьбы? Все знают: в медовый месяц — страстный, через пару лет — уже не очень. Но выход есть.
Джейсон и Джули решают завести ребенка, но при этом остаться только друзьями. Десять минут, девять месяцев — малыш готов. И уже Джейсон приударяет за шикарной брюнеткой, а Джули встречается с брутальным немцем. Но правда ли, что дети сексу не помеха?…
- - Исходник: Blu-ray 1080p
Качество видео:BDRip
Формат видео: AVI
Видео: 720x400 (16:9), 24 fps, XviD ~ 1463 kbps avg, 0.212 bit/pixel
Аудио: 48 kHz, AC3 6 ch, 448 kbps

MediaInfo

Общее
Полное имя : Deti.seksu.ne.pomeha.2011.D.BDRip.avi
Формат : AVI
Формат/Информация : Audio Video Interleave
Размер файла : 1,46 Гбайт
Продолжительность : 1 ч. 48 м.
Общий поток : 1920 Кбит/сек
Программа кодирования : VirtualDubMod 1.5.10.3 (build 2550/release)
Библиотека кодирования : VirtualDubMod build 2550/release
Видео
Идентификатор : 0
Формат : MPEG-4 Visual
Профиль формата : Advanced Simple@L5
Параметр BVOP формата : 1
Параметр QPel формата : Нет
Параметр GMC формата : Без точки перехода
Параметр матрицы формата : Выборочная
Идентификатор кодека : XVID
Идентификатор кодека/Подсказка : XviD
Продолжительность : 1 ч. 48 м.
Битрейт : 1463 Кбит/сек
Ширина : 720 пикселей
Высота : 400 пикселей
Соотношение сторон : 16:9
Частота кадров : 24,000 кадра/сек
Цветовое пространство : YUV
Субдискретизация насыщенности : 4:2:0
Битовая глубина : 8 бит
Тип развёртки : Прогрессивная
Метод сжатия : С потерями
Бит/(Пиксели*Кадры) : 0.212
Размер потока : 1,11 Гбайт (76%)
Библиотека кодирования : XviD 65
Аудио
Идентификатор : 1
Формат : AC-3
Формат/Информация : Audio Coding 3
Расширение режима : CM (complete main)
Параметр Endianness формата : Big
Идентификатор кодека : 2000
Продолжительность : 1 ч. 48 м.
Вид битрейта : Постоянный
Битрейт : 448 Кбит/сек
Каналы : 6 каналов
Расположение каналов : Front: L C R, Side: L R, LFE
Частота : 48,0 КГц
Битовая глубина : 16 бит
Метод сжатия : С потерями
Размер потока : 348 Мбайт (23%)
Выравнивание : Разделение по промежуткам
Продолжительность промежутка : 42 мс. (1,00 видеокадр)
Время предзагрузки промежутка : 500 мс.

Скриншоты

Скачать

Скачать торрент!

Как скачивать? · Что такое торрент? · Рейтинг и ограничения

Сайт не распространяет и не хранит электронные версии произведений, а лишь предоставляет доступ к создаваемому пользователями каталогу ссылок на торрент-файлы, которые содержат только списки хеш-сумм

[Профиль] [ЛС]
Показать сообщения:    
Ответить на тему

Текущее время: Сегодня 22:33

Часовой пояс: GMT + 4



Вы не можете начинать темы
Вы не можете отвечать на сообщения
Вы не можете редактировать свои сообщения
Вы не можете удалять свои сообщения
Вы не можете голосовать в опросах
Вы не можете прикреплять файлы к сообщениям
Вы не можете скачивать файлы