На грани / Man on a Ledge (Асгер Лет / Asger Leth) [2012, США, триллер, криминал, BDRip] DUB (Лицензия)

Ответить на тему
 
Автор Сообщение

user ®

Стаж: 7 лет 7 месяцев

Сообщений: 20008

Пост Пост: #1 от 31-Май-2012 10:19

[Цитировать]

НА ГРАНИ / Man on a Ledge
«Только невиновного можно загнать так высоко»
-Страна: США
Студия: Di Bonaventura Pictures, Summit Entertainment
Жанр: триллер, криминал
Год выпуска: 2012
Продолжительность: 01:42:22-Перевод: профессиональный (дублированный) лицензия
Субтитры: нет-Режиссёр: Асгер Лет / Asger Leth-В ролях: Сэм Уортингтон, Элизабет Бэнкс, Джейми Белл, Энтони Маки, Генезис Родригез, Эд Харрис, Эдвард Бёрнс, Мэнди Гонзалес, Барбара Марино, Дж. Смит-Камерон.-Описание:
Экс-полицейский, обвиняемый в преступлении, которого он якобы не совершал, собирается покончить жизнь самоубийством, сбросившись с крыши одного из отелей на Манхэттене. С ним в переговоры вступает психолог нью-йоркской полиции. Напряжение нарастает с каждой минутой, на площадь стягиваются наряды спецподразделений, толпа оглашается женскими криками. А в это время на месте происшествия, прямо под носом у полиции, совершается грандиозное ограбление века: неизвестные похищают уникальные бриллианты…
-6.6/10 (22277) 7.199 (14454)-Качество видео: BDRip (Исходник BDRemux)
Формат файла: AVI
Видео: XviD, 720x304 (2.35:1), 23.976 fps, 1646 kbps avg, 0.314 bit/pixel
Аудио: 48 kHz, AC3 Dolby Digital, 3/2 (L,C,R,l,r) + LFE ch, 384 kbps avg (Rus DUB)-

MediaInfo

Общее
Полное имя :Man.on.a.Ledge.2012.DUB.XviD.AC3.BDRip._by.ZNG505_.avi
Формат : AVI
Формат/Информация : Audio Video Interleave
Размер файла : 1,46 Гбайт
Продолжительность : 1 ч. 42 м.
Общий поток : 2039 Кбит/сек
Программа кодирования : VirtualDubModRus 1.5.10.2 (build 2542/release)
Библиотека кодирования : VirtualDubMod build 2542/release
Видео
Идентификатор : 0
Формат : MPEG-4 Visual
Профиль формата : Advanced Simple@L5
Параметр BVOP формата : 2
Параметр QPel формата : Нет
Параметр GMC формата : Без точки перехода
Параметр матрицы формата : Выборочная
Идентификатор кодека : XVID
Идентификатор кодека/Подсказка : XviD
Продолжительность : 1 ч. 42 м.
Битрейт : 1646 Кбит/сек
Ширина : 720 пикселей
Высота : 304 пикселя
Соотношение сторон : 2,35:1
Частота кадров : 23,976 кадра/сек
Цветовое пространство : YUV
Субдискретизация насыщенности : 4:2:0
Битовая глубина : 8 бит
Тип развёртки : Прогрессивная
Метод сжатия : С потерями
Бит/(Пиксели*Кадры) : 0.314
Размер потока : 1,18 Гбайт (81%)
Библиотека кодирования : XviD 65
Аудио
Идентификатор : 1
Формат : AC-3
Формат/Информация : Audio Coding 3
Расширение режима : CM (complete main)
Идентификатор кодека : 2000
Продолжительность : 1 ч. 42 м.
Вид битрейта : Постоянный
Битрейт : 384 Кбит/сек
Каналы : 6 каналов
Расположение каналов : Front: L C R, Side: L R, LFE
Частота : 48,0 КГц
Битовая глубина : 16 бит
Метод сжатия : С потерями
Размер потока : 281 Мбайт (19%)
Выравнивание : Разделение по промежуткам
Продолжительность промежутка : 42 мс. (1,00 видеокадр)
Время предзагрузки промежутка : 500 мс.
Заголовок : Rus DUB

Скриншот c названием фильма

Скриншоты

Скачать

Скачать торрент!

Как скачивать? · Что такое торрент? · Рейтинг и ограничения

Сайт не распространяет и не хранит электронные версии произведений, а лишь предоставляет доступ к создаваемому пользователями каталогу ссылок на торрент-файлы, которые содержат только списки хеш-сумм

[Профиль] [ЛС]

otzhig

Пол:

Стаж: 5 лет 8 месяцев

Сообщений: 38

Пост Пост: #2 от 15-Июн-2012 16:02 (спустя 15 дней)

[Цитировать]

не понравился. занудство какое-то, сценарий - балда.

_________________
[Профиль] [ЛС]
Показать сообщения:    
Ответить на тему

Текущее время: Сегодня 20:22

Часовой пояс: GMT + 4



Вы не можете начинать темы
Вы не можете отвечать на сообщения
Вы не можете редактировать свои сообщения
Вы не можете удалять свои сообщения
Вы не можете голосовать в опросах
Вы не можете прикреплять файлы к сообщениям
Вы не можете скачивать файлы