Ты можешь не целовать невесту / You May Not Kiss the Bride (Роб Хедден / Rob Hedden) [2011, США, мелодрама, комедия, TVRip] MVO

Ответить на тему
 
Автор Сообщение

user ®

Стаж: 7 лет 7 месяцев

Сообщений: 20008

Пост Пост: #1 от 31-Май-2012 10:19

[Цитировать]

Ты можешь не целовать невесту / You May Not Kiss the Bride
Страна: США
Жанр: мелодрама, комедия
Год выпуска: 2011
Продолжительность: 1:35:58
Перевод: Профессиональный (многоголосый закадровый)
Cубтитры: нет
Режиссер: Роб Хедден/Rob Hedden
В ролях: Дэйв Эннэйбл, Кэтрин МакФи, Роб Шнайдер, Мена Сувари, Кэти Бейтс, Кен Давитян, Тиа Каррере, Кевин Данн, Винни Джонс, Стивен Тоболовски
Описание: Комедия о женитьбе американского фотографа на девушке с хорватскими корнями. Ее отец, имеющий отношения к бандитским группировкам, преследует одну единственную цель — заполучить гражданство США. Принудительный медовый месяц идет из рук вон плохо.


Качество видео: TVRip
Формат видео: AVI
Видео: XviD, 1839 kb/s, 720x400, 16:9, 25 000 fps, 0.255 bit/pixel
Аудио: AC3, 48.0 kHz, 2 ch (L, R) 192 Kbps

MediaInfo

G:\фильмы 2011-2012\Ty.mozhesh.ne.celovat.nevestu.2011.P.IPTVRip.1400MB.avi
General
Complete name : G:\фильмы 2011-2012\Ty.mozhesh.ne.celovat.nevestu.2011.P.IPTVRip.1400MB.avi
Format : AVI
Format/Info : Audio Video Interleave
File size : 1.37 GiB
Duration : 1h 35mn
Overall bit rate : 2 040 Kbps
Movie name : You May Not Kiss the Bride (2011)
Director : D!mka
Writing application : VirtualDubMod 1.5.10.2 (build 2540/release)
Copyright : http:// СПАМ
Video #0
ID : 0
Format : MPEG-4 Visual
Format profile : Advanced Simple@L5
Format settings, BVOP : 1
Format settings, QPel : No
Format settings, GMC : No warppoints
Format settings, Matrix : Default (MPEG)
Codec ID : XVID
Codec ID/Hint : XviD
Duration : 1h 35mn
Bit rate : 1 839 Kbps
Width : 720 pixels
Height : 400 pixels
Display aspect ratio : 16:9
Frame rate : 25.000 fps
Color space : YUV
Chroma subsampling : 4:2:0
Bit depth : 8 bits
Scan type : Progressive
Compression mode : Lossy
Bits/(Pixel*Frame) : 0.255
Stream size : 1.23 GiB (90%)
Writing library : XviD 1.2.1 (UTC 2008-12-04)
Audio #1
ID : 1
Format : AC-3
Format/Info : Audio Coding 3
Mode extension : CM (complete main)
Codec ID : 2000
Duration : 1h 35mn
Bit rate mode : Constant
Bit rate : 192 Kbps
Channel(s) : 2 channels
Channel positions : Front: L R
Sampling rate : 48.0 KHz
Bit depth : 16 bits
Compression mode : Lossy
Delay relative to video : 24ms
Stream size : 132 MiB (9%)
Alignment : Split accross interleaves
Interleave, duration : 40 ms (1.00 video frame)
Interleave, preload duration : 500 ms

Скриншоты


Скачать

Скачать торрент!

Как скачивать? · Что такое торрент? · Рейтинг и ограничения

Сайт не распространяет и не хранит электронные версии произведений, а лишь предоставляет доступ к создаваемому пользователями каталогу ссылок на торрент-файлы, которые содержат только списки хеш-сумм

[Профиль] [ЛС]

odoc

Пол:

Стаж: 4 года 8 месяцев

Сообщений: 2

Пост Пост: #2 от 02-Июн-2012 22:54 (спустя 2 дня 12 часов)

[Цитировать]

Фильм действительно приятно смотреть. Немного наивный но хороший.

_________________
doc
[Профиль] [ЛС]
Показать сообщения:    
Ответить на тему

Текущее время: Сегодня 02:17

Часовой пояс: GMT + 4



Вы не можете начинать темы
Вы не можете отвечать на сообщения
Вы не можете редактировать свои сообщения
Вы не можете удалять свои сообщения
Вы не можете голосовать в опросах
Вы не можете прикреплять файлы к сообщениям
Вы не можете скачивать файлы