Белый танец (Рауф Кубаев) [1999, драма, мелодрама, DVDRip]

Ответить на тему
 
Автор Сообщение

user ®

Стаж: 7 лет 7 месяцев

Сообщений: 20008

Пост Пост: #1 от 07-Май-2012 00:29

[Цитировать]

Белый танец
Жанр: драма, мелодрама
Год выпуска: 1999
Продолжительность: 01:34:10
Режиссёр: Рауф Кубаев
В ролях: Ольга Цирсен, Александр Домогаров, Николай Добрынин, Игорь Ливанов, Вадим Андреев, Евгений Весник
Описание: Этой потрясающе красивой и тонкой девушке крупно не повезло: брошенная и обманутая мужем-режиссером, без денег, жилья, среди грубых, похотливых мужчин и коварных женщин, среди чужого и жестокого мира денег и грубой силы. Ей нужно остаться собой — чистой и утонченной. И вот, когда кажется, что нет больше сил жить, придет большая и всеобъемлющая любовь, которая заполнит до отказа, и окажется, что вся предыдущая жизнь была подготовкой к встрече с ней...
Качество видео: DVDRip
Формат видео: AVI
Видео: XviD, 688x512 (1.34), 2084 Kbps, 25 fps
Аудио: MP3 2.0, 48 KHz, 128 Kbps

MediaInfo

General
Complete name : Q:\torrent\DVD\Release\Белый Танец. DVDRip.avi
Format : AVI
Format/Info : Audio Video Interleave
File size : 1.46 GiB
Duration : 1h 34mn
Overall bit rate : 2 220 Kbps
Writing application : VirtualDubMod 1.5.4.1 (build 2178/release)
Writing library : VirtualDubMod build 2178/release
Video
ID : 0
Format : MPEG-4 Visual
Format profile : Advanced Simple@L5
Format settings, BVOP : No
Format settings, QPel : No
Format settings, GMC : No warppoints
Format settings, Matrix : Custom
Codec ID : XVID
Codec ID/Hint : XviD
Duration : 1h 34mn
Bit rate : 2 084 Kbps
Width : 688 pixels
Height : 512 pixels
Display aspect ratio : 4:3
Frame rate : 25.000 fps
Color space : YUV
Chroma subsampling : 4:2:0
Bit depth : 8 bits
Scan type : Progressive
Compression mode : Lossy
Bits/(Pixel*Frame) : 0.237
Stream size : 1.37 GiB (94%)
Writing library : XviD 1.2.1 (UTC 2008-12-04)
Audio
ID : 1
Format : MPEG Audio
Format version : Version 1
Format profile : Layer 3
Mode : Joint stereo
Mode extension : MS Stereo
Codec ID : 55
Codec ID/Hint : MP3
Duration : 1h 34mn
Bit rate mode : Constant
Bit rate : 128 Kbps
Channel(s) : 2 channels
Sampling rate : 48.0 KHz
Compression mode : Lossy
Stream size : 86.2 MiB (6%)
Alignment : Aligned on interleaves
Interleave, duration : 80 ms (2.00 video frames)
Interleave, preload duration : 504 ms
Writing library : LAME3.98r
Encoding settings : -m j -V 4 -q 2 -lowpass 17 -b 128

Скриншот c названием фильма

Скриншоты

Скачать

Скачать торрент!

Как скачивать? · Что такое торрент? · Рейтинг и ограничения

Сайт не распространяет и не хранит электронные версии произведений, а лишь предоставляет доступ к создаваемому пользователями каталогу ссылок на торрент-файлы, которые содержат только списки хеш-сумм

[Профиль] [ЛС]
Показать сообщения:    
Ответить на тему

Текущее время: Сегодня 07:05

Часовой пояс: GMT + 4



Вы не можете начинать темы
Вы не можете отвечать на сообщения
Вы не можете редактировать свои сообщения
Вы не можете удалять свои сообщения
Вы не можете голосовать в опросах
Вы не можете прикреплять файлы к сообщениям
Вы не можете скачивать файлы