Неадекватные люди (Роман Каримов) [2010, Мелодрама, комедия, BDRip]

Ответить на тему
 
Автор Сообщение

user ®

Стаж: 7 лет 7 месяцев

Сообщений: 20008

Пост Пост: #1 от 07-Май-2012 00:29

[Цитировать]

Неадекватные люди
Жанр: Мелодрама, комедия
Слоган: «Биться головой о стенку гораздо веселее, когда знаешь, что за ней скрывается родственная душа.»
Год выпуска: 2010
Продолжительность: 01:46:15
Режиссёр: Роман Каримов
В ролях: Илья Любимов, Ингрид Олеринская, Евгений Цыганов, Юлия Такшина, Артем Душкин, Полина Иосилевич, Марина Зайцева, Анастасия Федоркова, Назар Ас-Самаррай, Анна Колобаева
Описание: Тихий и воспитанный Виталик пытается начать жизнь с нуля в новом городе. Но странным образом ему на пути попадаются одни сумасшедшие. Его соседкой по лестничной площадке оказывается взбалмошная Кристина, стремящаяся переделать его из задрота в нормального мужика, на новой работе атакует похотливая начальница и даже психолог, помогающий ему совладать со всем этим — и тот оказывается садо-мазохистом. Виталик кажется единственным адекватным человеком здесь. Но так ли это на самом деле?

Доп. информация

режиссер Роман Каримов
сценарий Роман Каримов
продюсер Михаил Кукушкин, Андрей Тарасов, Антон Торопцев, ...
оператор Илья Овсенев
композитор Роман Каримов
художник Олеся Петраш
монтаж Роман Каримов
жанр мелодрама, комедия
бюджет $100 000
маркетинг $300 000
сборы в России $621 262
зрители 95.3 тыс., 3.5 тыс.
премьера (РФ) 13 января 2011, «Парадиз»
релиз на DVD 10 февраля 2011, «Парадиз Видео», ...
релиз на Blu-Ray 10 февраля 2011, «Парадиз Видео»

Качество видео: BDRip
Формат видео: AVI
Видео: 720x400 (1.80:1), 23.976 fps, XviD build 57, 2244 kbps avg, 0.33 bit/pixel
Аудио: 48 kHz, AC3 Dolby Digital, 3/2 (L,C,R,l,r) + LFE ch, 448 kbps

MediaInfo

Complete name : Неадекватные люди.avi
Format : AVI
Format/Info : Audio Video Interleave
Format profile : OpenDML
File size : 2.00 GiB
Duration : 1h 46mn
Overall bit rate : 2 698 Kbps
Movie name : Neadekvatnye lyudi (2010) BDRip
Genre : Comedy
Writing application : VirtualDubModRus 1.5.10.2 (build 2542/release)
Video
ID : 0
Format : MPEG-4 Visual
Format profile : Advanced Simple@L5
Format settings, BVOP : Yes
Format settings, QPel : No
Format settings, GMC : No warppoints
Format settings, Matrix : Custom
Codec ID : XVID
Codec ID/Hint : XviD
Duration : 1h 46mn
Bit rate : 2 239 Kbps
Width : 720 pixels
Height : 400 pixels
Display aspect ratio : 16:9
Frame rate : 23.976 fps
Resolution : 8 bits
Colorimetry : 4:2:0
Scan type : Progressive
Bits/(Pixel*Frame) : 0.324
Stream size : 1.66 GiB (83%)
Writing library : XviD 57
Audio
ID : 1
Format : AC-3
Format/Info : Audio Coding 3
Codec ID : 2000
Duration : 1h 45mn
Bit rate mode : Constant
Bit rate : 448 Kbps
Channel(s) : 6 channels
Channel positions : Front: L C R, Surround: L R, LFE
Sampling rate : 48.0 KHz
Stream size : 340 MiB (17%)
Alignment : Split accross interleaves
Interleave, duration : 42 ms (1.00 video frame)
Interleave, preload duration : 500 ms

Скриншот c названием фильма

Скриншоты

Скачать

Скачать торрент!

Как скачивать? · Что такое торрент? · Рейтинг и ограничения

Сайт не распространяет и не хранит электронные версии произведений, а лишь предоставляет доступ к создаваемому пользователями каталогу ссылок на торрент-файлы, которые содержат только списки хеш-сумм

[Профиль] [ЛС]
Показать сообщения:    
Ответить на тему

Текущее время: Сегодня 00:04

Часовой пояс: GMT + 4



Вы не можете начинать темы
Вы не можете отвечать на сообщения
Вы не можете редактировать свои сообщения
Вы не можете удалять свои сообщения
Вы не можете голосовать в опросах
Вы не можете прикреплять файлы к сообщениям
Вы не можете скачивать файлы