Банкомат / ATM (Дэвид Брукс / David Brooks) [2012, США, Канада, Ужасы, триллер, HDRip] DVO

Ответить на тему
 
Автор Сообщение

user ®

Стаж: 7 лет 7 месяцев

Сообщений: 20008

Пост Пост: #1 от 06-Май-2012 19:49

[Цитировать]

Банкомат / ATM- Страна: США, Канада
Жанр: Ужасы, триллер
Год выпуска: 2012
Продолжительность: 01:30:16-Перевод: Любительский (двухголосый закадровый)
Cубтитры: нет-Режиссер: Дэвид Брукс / David Brooks
В ролях: Элис Ив, Джош Пек, Брайан Джерати, Аарон Хьюз, Уилл Войтович, Омар Кхан, Глен Томпсон, Роберт Хакулак-Описание: История трех сослуживцев, попытка которых снять деньги в ближайшем банкомате поздно ночью оборачивается непредвиденными последствиями. Их начинает терроризировать угрожающего вида верзила в длинной куртке с капюшоном, который не дает им спокойно уйти.-Сэмпл | Трейлер-Качество видео: HDRip (BDRip (720p))
Формат видео: AVI-Видео: XVID 720x400 23.98fps 1715Kbps
Аудио: Dolby AC3 48000Hz 6ch 448Kbps-

MediaInfo

General
Complete name : D:\3.Торренты\Bankomat.2012.XviD.HDRip.avi
Format : AVI
Format/Info : Audio Video Interleave
File size : 1.37 GiB
Duration : 1h 30mn
Overall bit rate : 2 172 Kbps
Writing application : VirtualDubMod 1.5.10.3 | www.virtualdub-fr.org || (build 2550/release)
Writing library : VirtualDubMod build 2550/release
Video
Format : MPEG-4 Visual
Format profile : Streaming Video@L1
Format settings, BVOP : Yes
Format settings, QPel : No
Format settings, GMC : No warppoints
Format settings, Matrix : Default
Codec ID : XVID
Codec ID/Hint : XviD
Duration : 1h 30mn
Bit rate : 1 715 Kbps
Width : 720 pixels
Height : 400 pixels
Display aspect ratio : 16/9
Frame rate : 23.975 fps
Resolution : 24 bits
Colorimetry : 4:2:0
Scan type : Progressive
Bits/(Pixel*Frame) : 0.248
Stream size : 1.08 GiB (79%)
Writing library : XviD 50
Audio
Format : AC-3
Format/Info : Audio Coding 3
Codec ID : 2000
Duration : 1h 30mn
Bit rate mode : Constant
Bit rate : 448 Kbps
Channel(s) : 6 channels
Channel positions : Front: L C R, Surround: L R, LFE
Sampling rate : 48.0 KHz
Stream size : 289 MiB (21%)
Alignment : Split accross interleaves
Interleave, duration : 42 ms (1.00 video frame)
Interleave, preload duration : 500 ms

Скриншот c названием фильма

Скриншоты

Скачать

Скачать торрент!

Как скачивать? · Что такое торрент? · Рейтинг и ограничения

Сайт не распространяет и не хранит электронные версии произведений, а лишь предоставляет доступ к создаваемому пользователями каталогу ссылок на торрент-файлы, которые содержат только списки хеш-сумм

[Профиль] [ЛС]
Показать сообщения:    
Ответить на тему

Текущее время: Сегодня 02:16

Часовой пояс: GMT + 4



Вы не можете начинать темы
Вы не можете отвечать на сообщения
Вы не можете редактировать свои сообщения
Вы не можете удалять свои сообщения
Вы не можете голосовать в опросах
Вы не можете прикреплять файлы к сообщениям
Вы не можете скачивать файлы