[720p] Виртуальное путешествие: Гуйлинь / Virtual Trip: Guilin [2007 г., Документальный, видовой, релаксация, BDRip]

Ответить на тему
 
Автор Сообщение

DeTorquemada ®

Пол:

Стаж: 5 лет 10 месяцев

Сообщений: 6

Откуда: СССР

Пост Пост: #1 от 21-Янв-2012 17:07

[Цитировать]

-Виртуальное путешествие: Гуйлинь
Virtual Trip: Guilin
- Год выпуска: 2007
Страна: Тайвань / YSY Digital Entertainment
Жанр: Документальный, видовой, релаксация
Продолжительность: 01:53:21
Описание: Почувствуйте неприходящую красоту Китая. Насладитесь таинственным видом, похожим на живопись китайской тушью. Спокойное течение прекрасной реки Цзян Ли. Горные вершины различной высоты и невероятные скальные образования вдоль реки создают захватывающий вид. Идиллические, спокойные пейзажи рыбацкой деревни и фермы вернут Вас в прошлое. Гуйлинь, расположенный на юге Китая, представляет одно из живописнейших мест страны. Насладитесь великолепным видом, похожим на живопись китайской тушью, с яхты, спускающейся вниз по реке Цзян Ли. Посмотрите на Ксин Пин, древнюю рыбацкую деревню с 1300-летней историей, и чистую красоту деревни Байша вдоль реки Юлонгхи, притока Цзян Ли. Всё снято на видео высокой чёткости с 6-канальным объёмным звуком.

MediaInfo

General
Unique ID : 219604847360018589050763895949326899269 (0xA5365AEADE9A51A69A042D56CAA55845)
Complete name : Virtual_trip_-_Guilin.2007[MS+NS][720p_x264_AC3]BDRip.mkv
Format : Matroska
File size : 4.21 GiB
Duration : 1h 53mn
Overall bit rate : 5 313 Kbps
Movie name : ENCODED BY ELR 2010
Encoded date : UTC 2010-07-12 14:52:04
Writing application : mkvmerge v4.1.1 ('Bouncin' Back') built on Jul 3 2010 22:54:08
Writing library : libebml v1.0.0 + libmatroska v1.0.0
Video
ID : 1
Format : AVC
Format/Info : Advanced Video Codec
Format profile : High@L4.0
Format settings, CABAC : Yes
Format settings, ReFrames : 3 frames
Codec ID : V_MPEG4/ISO/AVC
Duration : 1h 53mn
Bit rate mode : Variable
Bit rate : 4 549 Kbps
Maximum bit rate : 25.0 Mbps
Width : 1 280 pixels
Height : 720 pixels
Display aspect ratio : 16:9
Frame rate : 29.970 fps
Color space : YUV
Chroma subsampling : 4:2:0
Bit depth : 8 bits
Scan type : Progressive
Bits/(Pixel*Frame) : 0.165
Stream size : 3.51 GiB (84%)
Title : Guilin ELR 2010
Writing library : x264 core 96 r1613 81e75e9
Encoding settings : cabac=1 / ref=3 / deblock=1:0:0 / analyse=0x3:0x133 / me=umh / subme=7 / psy=1 / psy_rd=1.00:0.00 / mixed_ref=1 / me_range=16 / chroma_me=1 / trellis=1 / 8x8dct=1 / cqm=0 / deadzone=21,11 / fast_pskip=1 / chroma_qp_offset=-2 / threads=6 / sliced_threads=0 / nr=0 / decimate=1 / interlaced=0 / constrained_intra=0 / bframes=3 / b_pyramid=0 / b_adapt=1 / b_bias=0 / direct=1 / weightb=1 / weightp=2 / keyint=300 / keyint_min=30 / scenecut=40 / intra_refresh=0 / rc_lookahead=40 / rc=2pass / mbtree=1 / bitrate=4549 / ratetol=1.0 / qcomp=0.60 / qpmin=10 / qpmax=51 / qpstep=4 / cplxblur=20.0 / qblur=0.5 / vbv_maxrate=25000 / vbv_bufsize=25000 / ip_ratio=1.40 / aq=1:1.00 / nal_hrd=vbr
Language : English
Audio #1
ID : 2
Format : AC-3
Format/Info : Audio Coding 3
Mode extension : CM (complete main)
Muxing mode : Header stripping
Codec ID : A_AC3
Duration : 1h 53mn
Bit rate mode : Constant
Bit rate : 384 Kbps
Channel(s) : 6 channels
Channel positions : Front: L C R, Side: L R, LFE
Sampling rate : 48.0 KHz
Bit depth : 16 bits
Compression mode : Lossy
Stream size : 311 MiB (7%)
Title : AC3 5.1 Nature Sounds & Music
Language : Chinese
Audio #2
ID : 3
Format : AC-3
Format/Info : Audio Coding 3
Mode extension : CM (complete main)
Muxing mode : Header stripping
Codec ID : A_AC3
Duration : 1h 53mn
Bit rate mode : Constant
Bit rate : 384 Kbps
Channel(s) : 6 channels
Channel positions : Front: L C R, Side: L R, LFE
Sampling rate : 48.0 KHz
Bit depth : 16 bits
Compression mode : Lossy
Stream size : 311 MiB (7%)
Title : AC3 5.1 Nature Sounds
Language : English
Text
ID : 4
Format : VobSub
Muxing mode : zlib
Codec ID : S_VOBSUB
Codec ID/Info : The same subtitle format used on DVDs
Title : Guilin ELR 2010
Language : English
Menu
00:00:00.000 : en:00:00:00.000
00:15:12.979 : en:00:15:12.979
00:25:20.986 : en:00:25:20.986
00:43:49.026 : en:00:43:49.026
00:45:50.014 : en:00:45:50.014
00:53:55.032 : en:00:53:55.032
00:59:36.973 : en:00:59:36.973
01:12:45.027 : en:01:12:45.027
01:19:24.960 : en:01:19:24.960
01:26:21.977 : en:01:26:21.977
01:27:57.005 : en:01:27:57.005
01:42:44.025 : en:01:42:44.025
01:45:36.997 : en:01:45:36.997
Качество: BDRip 720p
Формат: MKV
Видео кодек: H.26x
Аудио кодек: AC3
Видео: 1280x720, H.264(AVC) 29.97fps 4549Kbps [English, Guilin ELR 2010 (Video 1)]
Аудио 1: 48kHz, Dolby AC3, 6ch, 384 Kbps[Chinese, AC3 5.1 Nature Sounds & Music (Audio 1)]
Аудио 2: 48kHz, Dolby AC3, 6ch, 384 Kbps [English, AC3 5.1 Nature Sounds (Audio 2)]

Скриншоты

Скачать

Скачать торрент!

Как скачивать? · Что такое торрент? · Рейтинг и ограничения

Сайт не распространяет и не хранит электронные версии произведений, а лишь предоставляет доступ к создаваемому пользователями каталогу ссылок на торрент-файлы, которые содержат только списки хеш-сумм


_________________
Один из тех невинных, бесхитростных, как дети, аморальных выродков, которые даже не подозревают о существовании добра и зла.
[Профиль] [ЛС]
Показать сообщения:    
Ответить на тему

Текущее время: Сегодня 16:04

Часовой пояс: GMT + 4



Вы не можете начинать темы
Вы не можете отвечать на сообщения
Вы не можете редактировать свои сообщения
Вы не можете удалять свои сообщения
Вы не можете голосовать в опросах
Вы не можете прикреплять файлы к сообщениям
Вы не можете скачивать файлы