24 часа / 24 Just in time /Сезон - 4, серии 1-24/ (Joel Surnow, Robert Cochran, Jon Cassar) [2005 г., драма / детектив / боевик / триллер, DVDRip]

Ответить на тему
 
Автор Сообщение

oppolon ®

Стаж: 5 лет 2 месяца

Сообщений: 11

Откуда: Moscow

Пост Пост: #1 от 17-Сен-2011 17:21

[Цитировать]

24 часа / 24 Just in time /Сезон - 4, серии 1-24/
Год выпуска: 2005
Жанр: драма / детектив / боевик / триллер
Страна: США
Режиссер: Joel Surnow, Robert Cochran, Jon Cassar
В ролях: Kiefer Sutherland, Mary Lynn Rajskub, Cherry Jones, James Morrison, Annie Wersching, Colm Feore, Bob Gunton, Jeffrey Nordling, Rhys Coiro, Janeane Garofalo, Carlos Bernard
Описание: В сутках 24 часа, но для Джека Бауэра - шефа элитного антитеррористического подразделения ЦРУ – этого времени явно недостаточно. Ровно за одни сутки он должен успеть спасти город и страну от очередной террористической угрозы. Каждый сезон, состоящий из 24 серий, повествует об одних сутках из жизни Джека, за один день он должен совершить невозможное...
4й сезон: Еще один захватывающий день из жизни супер-агента Джека Бауера. Сезон начинается со смертоносной террористической атаки и похищения Министра Обороны Джеймса Хэллэра. И хотя Бауер уволен из КТП, ничего удивительного в том, что именно он окажется тем, кто начнет борьбу с террористами, нет. И у него не займет много времени выяснить, что похищение его босса это часть большого плана, разработанного Хабибом Марваном, лидером ближне-восточной террористической ячейки, с которой правительство Соединенных Штатов борется уже много лет. Признанный многими одним их лучших сезонов, 4 сезон сериала 24 сильно отличается от предыдущих трех. Во-первых, обновленный актерский состав. Во-вторых, скорость каждого эпизода уже не такая безумная. Теперь акцент делается не на то, чтобы каждая серия заканчивалась на самом интересном месте, а на сложные, разветвленные сюжетные линии. По сравнению с предыдущими сезонами, сериал 24 стал намного изящнее и умнее, и следовательно, еще лучше.
Личная оценка: 9 из 10
Продолжительность: 24 серии по ~43 минуты, общая: ~17:12:00
Качество видео: DVDRip
Видео: кодек: XviD, контейнер: avi, размер кадра: 688x384 (16:9), 23.976 fps, битрейт: 1 660 кб/с
Аудио: язык: русский, перевод: одноголосый закадровый, аудиокодек: MP3, битрейт аудио: 448 кб/с

Дополнительная информация:

General
Format : AVI
Format/Info : Audio Video Interleave
File size : 651 MiB
Duration : 42mn 59s
Overall bit rate : 2 117 Kbps
Writing application : VirtualDubMod 1.5.10.2 (build 2540/release)
Writing library : VirtualDubMod build 2540/release
Video #0
ID : 0
Format : MPEG-4 Visual
Format profile : AdvancedSimple@L5
Format settings, BVOP : Yes
Format settings, QPel : No
Format settings, GMC : No warppoints
Format settings, Matrix : Default (MPEG)
Codec ID : XVID
Codec ID/Hint : XviD
Duration : 42mn 59s
Bit rate : 1 660 Kbps
Width : 688 pixels
Height : 384 pixels
Display aspect ratio : 16:9
Frame rate : 23.976 fps
Resolution : 24 bits
Colorimetry : 4:2:0
Scan type : Progressive
Bits/(Pixel*Frame) : 0.262
Stream size : 510 MiB (78%)
Writing library : XviD 1.2.0.dev47 (UTC 2006-11-01)
Audio #1
ID : 1
Format : AC-3
Format/Info : Audio Coding 3
Codec ID : 2000
Duration : 42mn 59s
Bit rate mode : Constant
Bit rate : 448 Kbps
Channel(s) : 6 channels
Channel positions : Front: L C R, Surround: L R, LFE
Sampling rate : 48.0 KHz
Stream size : 138 MiB (21%)
Alignment : Split accross interleaves
Interleave, duration : 42 ms (1.00 video frame)
Interleave, preload duration : 500 ms

Скачать

Скачать торрент!

Как скачивать? · Что такое торрент? · Рейтинг и ограничения

Сайт не распространяет и не хранит электронные версии произведений, а лишь предоставляет доступ к создаваемому пользователями каталогу ссылок на торрент-файлы, которые содержат только списки хеш-сумм



Последний раз редактировалось: oppolon (2011-09-28 21:31), всего редактировалось 2 раз(а)
[Профиль] [ЛС]

Засранец

Стаж: 6 лет 6 месяцев

Сообщений: 151

Откуда: Калининградская область

Пост Пост: #2 от 22-Сен-2011 21:54 (спустя 5 дней)

[Цитировать]

Данные вами разрешение не совпадает с данными скриншотов
размер кадра: 640x352 (скриншоты 688х384) Стоит поправить если не знаете как это сделать обращайтесь.
[Профиль] [ЛС]

oppolon ®

Стаж: 5 лет 2 месяца

Сообщений: 11

Откуда: Moscow

Пост Пост: #3 от 24-Сен-2011 15:51 (спустя 1 день 17 часов)

[Цитировать]

И как же?
[Профиль] [ЛС]

oppolon ®

Стаж: 5 лет 2 месяца

Сообщений: 11

Откуда: Moscow

Пост Пост: #4 от 25-Сен-2011 15:48 (спустя 23 часа)

[Цитировать]

Смотрите, поправлено...
[Профиль] [ЛС]

Temiks

Стаж: 6 лет 2 месяца

Сообщений: 147

Откуда: Украина

Пост Пост: #5 от 28-Сен-2011 21:44 (спустя 3 дня)

[Цитировать]

Проверил
[Профиль] [ЛС]
Показать сообщения:    
Ответить на тему

Текущее время: Сегодня 16:11

Часовой пояс: GMT + 4



Вы не можете начинать темы
Вы не можете отвечать на сообщения
Вы не можете редактировать свои сообщения
Вы не можете удалять свои сообщения
Вы не можете голосовать в опросах
Вы не можете прикреплять файлы к сообщениям
Вы не можете скачивать файлы