Пингвины мистера Поппера / Mr. Popper's Penguins (Марк С. Уотерс / Mark Waters) [2011, США, Комедия, CamRip] DUB

Ответить на тему
 
Автор Сообщение

user ®

Стаж: 7 лет 7 месяцев

Сообщений: 20008

Пост Пост: #1 от 31-Июл-2011 08:53

[Цитировать]

Пингвины мистера Поппера / Mr. Popper's Penguins
Страна: США
Жанр: Комедия
Год выпуска: 2011
Продолжительность: 01:27:18
Перевод: Профессиональный (дублированный)
Cубтитры: нет
Режиссер: Марк С. Уотерс / Mark Waters
В ролях: Джим Керри, Карла Гуджино, Анджела Лэнсбери, Офелия Ловибонд, Мадлен Кэрролл, Кларк Грегг, Джефри Тэмбор, Дэвид Крамхолц, Филип Бейкер Холл, Максвелл Перри Коттон...
Описание: Какую только свинью порой не подложит судьба! Правда, на этот раз она решила обойтись более экзотическими животными. Преуспевающий бизнесмен получает в наследство шестерых пингвинов и буквально влюбляется в них. Работа оказывается заброшенной, шикарные апартаменты превращаются в заснеженную обитель, дело даже почти доходит до тюрьмы. Но стоит ли сожалеть о мишуре, пусть даже и золотой, если взамен тебе открывается такой необычный, и вместе с тем такой настоящий мир?

Качество видео: CamRip
Формат видео: AVI
Видео кодек: XviD
Аудио кодек: AC3
Видео: 720x400 (1.80:1), 25 fps, XviD build 50 ~2244 kbps avg, 0.31 bit/pixel
Аудио: 48 kHz, AC3 Dolby Digital, 2/0 (L,R) ch, ~128 kbps
Релиз от:

MediaInfo

Общее
Формат : AVI
Формат/Информация : Audio Video Interleave
Размер файла : 1,45 Гбайт
Продолжительность : 1 ч. 27 м.
Общий поток : 2383 Кбит/сек
Программа кодирования : VirtualDubMod 1.5.10.3 | www.virtualdub-fr.org || (build 2550/release)
Библиотека кодирования : VirtualDubMod build 2550/release
Видео
Идентификатор : 0
Формат : MPEG-4 Visual
Профиль формата : Advanced Simple@L5
Параметр BVOP формата : 2
Параметр QPel формата : Нет
Параметр GMC формата : Без точки перехода
Параметр матрицы формата : Default (MPEG)
Идентификатор кодека : XVID
Идентификатор кодека/Подсказка : XviD
Продолжительность : 1 ч. 27 м.
Битрейт : 2245 Кбит/сек
Ширина : 720 пикс.
Высота : 400 пикс.
Соотношение сторон : 16:9
Частота кадров : 25,000 кадр/сек
Цветовое пространство : YUV
Подвыборка цветности : 4:2:0
Битовая глубина : 8 бит
Тип развёртки : Прогрессивная
Метод сжатия : С потерями
Бит/(Пиксели*Кадры) : 0.312
Размер потока : 1,37 Гбайт (94%)
Библиотека кодирования : XviD 1.2.1 (UTC 2008-12-04)
Аудио
Идентификатор : 1
Формат : AC-3
Формат/Информация : Audio Coding 3
Расширение режима : CM (complete main)
Идентификатор кодека : 2000
Продолжительность : 1 ч. 27 м.
Вид битрейта : Постоянный
Битрейт : 128 Кбит/сек
Каналы : 2 канала
Расположение каналов : Front: L R
Частота : 48,0 КГц
Битовая глубина : 16 бит
Метод сжатия : С потерями
Размер потока : 79,9 Мбайт (5%)
Выравнивание : Разделение по промежуткам
Продолжительность промежутка : 40 мс. (1,00 видеокадр)
Время предзагрузки промежутка : 500 ms

Скриншот c названием фильма

Скриншоты

Скачать

Скачать торрент!

Как скачивать? · Что такое торрент? · Рейтинг и ограничения

Сайт не распространяет и не хранит электронные версии произведений, а лишь предоставляет доступ к создаваемому пользователями каталогу ссылок на торрент-файлы, которые содержат только списки хеш-сумм

[Профиль] [ЛС]

zero85

Стаж: 5 лет 4 месяца

Сообщений: 17

Пост Пост: #2 от 20-Авг-2011 23:01 (спустя 20 дней)

[Цитировать]

Стоит качать?
А когда ожидается нормальное качество?
[Профиль] [ЛС]

aperepelkin

Стаж: 5 лет 4 месяца

Сообщений: 11

Откуда: Оренбургская

Пост Пост: #3 от 13-Сен-2011 11:37 (спустя 23 дня)

[Цитировать]

Стоит качать?
А когда ожидается нормальное качество?
Лучше не ломать глаза.
Дату выхода смотреть тут.
[Профиль] [ЛС]
Показать сообщения:    
Ответить на тему

Текущее время: Сегодня 10:00

Часовой пояс: GMT + 4



Вы не можете начинать темы
Вы не можете отвечать на сообщения
Вы не можете редактировать свои сообщения
Вы не можете удалять свои сообщения
Вы не можете голосовать в опросах
Вы не можете прикреплять файлы к сообщениям
Вы не можете скачивать файлы