Крах неприемлем: Спасая Уолл-стрит / Слишком крут для неудачи / Too Big to Fail (Кёртис Хэнсон / Curtis Hanson) [2011, США, драма, HDTVRip] DVO (Кубик в Кубе) + Original (Eng)

Ответить на тему
 
Автор Сообщение

user ®

Стаж: 7 лет 7 месяцев

Сообщений: 20008

Пост Пост: #1 от 30-Июн-2011 11:10

[Цитировать]

Крах неприемлем: Спасая Уолл-стрит / Слишком крут для неудачи / Too Big to Fail Год выпуска: 2011
Страна: США, HBO Films / Home Box Office (HBO) / Spring Creek Productions
Жанр: драма
Продолжительность: 01:38:39
Перевод: Профессиональный (двухголосый, закадровый) от Кубик в Кубе
Оригинальная дорожка: английская
Субтитры: русские (только надписи и пр.), английские (внешние, *.srt) - отдельно на файлообменнике-Режиссер: Кёртис Хэнсон /Curtis Hanson/
В ролях: Уильям Хёрт /William Hurt/, Пол Джаматти /Paul Giamatti/, Билли Крудап /Billy Crudup/, Тофер Грейс /Topher Grace/, Синтия Никсон /Cynthia Nixon/, Кэти Бейкер /Kathy Baker/-Описание: Телевизионный фильм «Too Big To Fail» канала HBO снят по одноимённому документальному бестселлеру журналиста New York Times Эндрю Росса Соркина. Фильм рассказывает о горячем лете и осени 2008 года — времени, когда вся мировая система была поставлена на грань краха. Гигантские инвестбанки с Уолл-Стрит лопались один за другим. Правительство США безуспешно пыталось спасти мир от кризиса, по сравнению с которым Великая Депрессия покажется «старыми добрыми временами», а Россия угрожала за один день уничтожить экономику США. И, что самое интересное, могла это сделать.
В центре сюжета — глава Казначейства (министерства финансов) США Генри Полсон (Уильям Хёрт), глава Федеральной Резервной Системы Бен Бернанке (Пол Джаматти), глава Федерального Резервного Банка Нью-Йорка (и будущий глава Казначейства) Тимоти Гайтнер (Билли Крудап), и крупнейшие инвестбанкиры.
Крайне динамичный сюжет, основанный на реальных событиях и документах, жёсткие короткие диалоги, сделки на миллиарды долларов, успехи и неожиданные провалы — фирменный стиль канала HBO. Фильм будет интересен всем, кто интересуется финансами, современной историей, инвестициями.- -Качество: HDTVRip (Исходник: Too.Big.to.Fail.2011.720p.HDTV.x264-MOMENTUM)
Формат: AVI
Видео кодек: XviD
Аудио кодек: AC3
Видео: 720x400 (1.80:1), 23.976 fps, XviD build 64 ~1710 kbps avg, 0.25 bit/pixel
Аудио#1: 48 kHz, AC3 Dolby Digital, 2/0 (L,R) ch, ~192.00 kbps avg | Русский, двухголосый закадровый
Аудио#2: 48 kHz, AC3 Dolby Digital, 2/0 (L,R) ch, ~192.00 kbps avg | Английский, оригинальная дорожка
Размер: 1488.33 Mb ( 1 560 627 200 bytes ) ~ 1/3 DVD-R

Скриншот с названием фильма:

Скриншоты:


-

MediaInfo:

General
Complete name                    : E:\Too.Big.to.Fail.2011.RUS.ENG.HDTVRip.XviD.AC3-MAXiMUM.avi
Format                           : AVI
Format/Info                      : Audio Video Interleave
File size                        : 1.45 GiB
Duration                         : 1h 38mn
Overal bit rate                  : 2109 Kbps
Movie name                       : Too Big to Fail (2011)
Director                         : Curtis Hanson
Genre                            : Drama
Writing application              : VirtualDubModRus 1.5.10.2 (build 2542/release)
Copyright                        : © HBO
Product                          : Movie
Video
Format                           : MPEG-4 Visual
Format profile                   : Streaming Video@L1
Format settings, BVOP            : Yes
Format settings, QPel            : No
Format settings, GMC             : No warpoints
Format settings, Matrix          : Default
Codec ID                         : XVID
Codec ID/Hint                    : XviD
Duration                         : 1h 38mn
Bit rate                         : 1711 Kbps
Width                            : 720 pixels
Height                           : 400 pixels
Display aspect ratio             : 16/9
Frame rate                       : 23.976 fps
Resolution                       : 8 bits
Colorimetry                      : 4:2:0
Scan type                        : Progressive
Bits/(Pixel*Frame)               : 0.248
Stream size                      : 1.18 GiB
Writing library                  : XviD 64
Audio #1
Format                           : AC-3
Format/Info                      : Audio Coding 3
Codec ID                         : 2000
Duration                         : 1h 38mn
Bit rate mode                    : Constant
Bit rate                         : 192 Kbps
Channel(s)                       : 2 channels
Channel positions                : L R
Sampling rate                    : 48.0 KHz
Stream size                      : 135 MiB
Title                            : KvK
Audio #2
Format                           : AC-3
Format/Info                      : Audio Coding 3
Codec ID                         : 2000
Duration                         : 1h 38mn
Bit rate mode                    : Constant
Bit rate                         : 192 Kbps
Channel(s)                       : 2 channels
Channel positions                : L R
Sampling rate                    : 48.0 KHz
Stream size                      : 135 MiB
Title                            : Original
Скачать

Скачать торрент!

Как скачивать? · Что такое торрент? · Рейтинг и ограничения

Сайт не распространяет и не хранит электронные версии произведений, а лишь предоставляет доступ к создаваемому пользователями каталогу ссылок на торрент-файлы, которые содержат только списки хеш-сумм

[Профиль] [ЛС]
Показать сообщения:    
Ответить на тему

Текущее время: Сегодня 02:20

Часовой пояс: GMT + 4



Вы не можете начинать темы
Вы не можете отвечать на сообщения
Вы не можете редактировать свои сообщения
Вы не можете удалять свои сообщения
Вы не можете голосовать в опросах
Вы не можете прикреплять файлы к сообщениям
Вы не можете скачивать файлы