Близнецы-убийцы / Seconds Apart (Антонио Негрет / Antonio Negret) [2011, США, ужасы, триллер, DVDRip] VO

Ответить на тему
 
Автор Сообщение

user ®

Стаж: 7 лет 7 месяцев

Сообщений: 20008

Пост Пост: #1 от 14-Июн-2011 10:38

[Цитировать]

Близнецы-убийцы / Seconds Apart
Страна: США
Жанр: ужасы, триллер
Год выпуска: 2011
Продолжительность: 01:25:05
Перевод: Любительский (одноголосый закадровый) [Voiz] по субтитрам Mokum
Cубтитры: нет
Режиссер: Антонио Негрет / Antonio Negret
В ролях: Орландо Джонс, Саманта Дрок, Луис Хертум, Моргана Шоу, Моника Акоста
Описание: Мальчики из хорошего общества... Кто скажет, что они — безжалостные убийцы? Их дар — телекинез и этот дар стал их проклятием. Невероятные способности помутненного разума становятся орудием таких отвратительных преступлений, на которые способно лишь самое извращенное сознание. Сыщики ищут след загадочных маньяков. А в это время зло порождает жестокий конфликт между самими братьями-монстрами...
Доп. информация:
IMDB 5.8/10 (524 votes)
СЭМПЛ
Релиз от
Качество видео: DVDRip
Формат видео: AVI
Видео: 720x400 (1.80:1), 25 fps, XviD MPEG-4 ~1799 kbps avg, 0.25 bit/pixel
Аудио: 48 kHz, AC3 Dolby Digital, 3/2 (L,C,R,l,r) + LFE ch, ~448 kbps

MediaInfo

General
Complete name : L:\Bliznecy.ubiycy.avi
Format : AVI
Format/Info : Audio Video Interleave
File size : 1.34 GiB
Duration : 1h 25mn
Overall bit rate : 2 257 Kbps
Writing application : VirtualDubMod 1.5.10.2 (build 2540/release)
Writing library : VirtualDubMod build 2540/release
Video
ID : 0
Format : MPEG-4 Visual
Format profile : Advanced Simple@L5
Format settings, BVOP : 1
Format settings, QPel : Yes
Format settings, GMC : No warppoints
Format settings, Matrix : Default (H.263)
Muxing mode : Packed bitstream
Codec ID : XVID
Codec ID/Hint : XviD
Duration : 1h 25mn
Bit rate : 1 800 Kbps
Width : 720 pixels
Height : 400 pixels
Display aspect ratio : 16:9
Frame rate : 25.000 fps
Color space : YUV
Chroma subsampling : 4:2:0
Bit depth : 8 bits
Scan type : Progressive
Compression mode : Lossy
Bits/(Pixel*Frame) : 0.250
Stream size : 1.07 GiB (80%)
Writing library : XviD 1.2.1 (UTC 2008-12-04)
Audio
ID : 1
Format : AC-3
Format/Info : Audio Coding 3
Mode extension : CM (complete main)
Codec ID : 2000
Duration : 1h 25mn
Bit rate mode : Constant
Bit rate : 448 Kbps
Channel(s) : 6 channels
Channel positions : Front: L C R, Side: L R, LFE
Sampling rate : 48.0 KHz
Bit depth : 16 bits
Compression mode : Lossy
Stream size : 273 MiB (20%)
Alignment : Split accross interleaves
Interleave, duration : 40 ms (1.00 video frame)
Interleave, preload duration : 500 ms

Скриншоты

Скачать

Скачать торрент!

Как скачивать? · Что такое торрент? · Рейтинг и ограничения

Сайт не распространяет и не хранит электронные версии произведений, а лишь предоставляет доступ к создаваемому пользователями каталогу ссылок на торрент-файлы, которые содержат только списки хеш-сумм

[Профиль] [ЛС]
Показать сообщения:    
Ответить на тему

Текущее время: Сегодня 03:51

Часовой пояс: GMT + 4



Вы не можете начинать темы
Вы не можете отвечать на сообщения
Вы не можете редактировать свои сообщения
Вы не можете удалять свои сообщения
Вы не можете голосовать в опросах
Вы не можете прикреплять файлы к сообщениям
Вы не можете скачивать файлы