Стреляющие горы / Серии: 4 из 4 (Рустам Уразаев) [2010, Героическая драма, SATRip]

Ответить на тему
 
Автор Сообщение

user ®

Стаж: 7 лет 7 месяцев

Сообщений: 20008

Пост Пост: #1 от 23-Май-2011 11:28

[Цитировать]

Стреляющие горы
Год выпуска: 2010
Производство: Студия "Центр кинопроизводства" по заказу кинокомпании "Форвард-Фильм"
Жанр: Героическая драма
Продолжительность: серия ~ 00:45:00
Субтитры: нет
Режиссёр: Рустам Уразаев
В ролях: Роман Курцын, Вадим Цаллати, Самад Мансуров, Сослан Фидаров, Константин Тополага, Рустам Уразаев, Анатолий Отраднов, Людмила Свитова, Борис Шевченко, Сергей Загребнев, Михаил Самохвалов, Олег Каменщиков, Руслан Ягудин, Дмитрий Мазуров, Иван Колесников, Фархад Махмудов, Денис Васильев, Тимур Ефременков
Описание: По одноименному роману Геннадия Ананьева и Юрия Бойко. Эта история произошла в начале 21-го века в Панкисском ущелье. На границе республики Ичкерии и Грузии скапливались бандформирования. На одной из пограничных застав становится известно о том, что некоторые силы боевиков собираются нелегально перейти Российско-Грузинскую границу. Капитан пограничных войск Меркурьев занимает оборону на одном из перевалов и ценой жизни своих бойцов задерживает и рассредотачивает отряд боевиков. Силы не равны и Меркурьев получает серьезные ранения. В этом бою Меркурьев обретает врага, с которым ему предстоит еще не раз столкнуться. Это Хасан, руководитель террористической группировки.
Потерпев оскорбительное для чести воина поражение на перевале, Хасан называет Меркурьева, единственного, кто выжил из пограничников, своим кровным врагом. Теперь Меркурьеву предстоит сразиться в неравной схватке с террористами и обезвредить Хасана.
Доп. информация: Запись со спутникового канала НТВ
Качество: SATRip
Формат: AVI
Видео кодек: XviD
Аудио кодек: MP3
Видео: 704 х 384 (16:9) 25.00fps 1596 Кбит/сек, 0.236 bit/pixel
Аудио: 48000Hz stereo 128 Кбит/сек

MI

General
Complete name : G:\Streliaushie.gori.(4.serii.iz.4).2010.XviD.SATRip\Streliaushie.gori.(1.seria.iz.4).2010.XviD.SATRip.avi
Format : AVI
Format/Info : Audio Video Interleave
File size : 570 MiB
Duration : 45mn 58s
Overall bit rate : 1 734 Kbps
Writing application : VirtualDubMod 1.5.10.2 (build 2540/release)
Writing library : VirtualDub build 30586/release
Video
ID : 0
Format : MPEG-4 Visual
Format profile : Advanced Simple@L5
Format settings, BVOP : Yes
Format settings, QPel : No
Format settings, GMC : No warppoints
Format settings, Matrix : Default (H.263)
Codec ID : XVID
Codec ID/Hint : XviD
Duration : 45mn 58s
Bit rate : 1 596 Kbps
Width : 704 pixels
Height : 384 pixels
Display aspect ratio : 16:9
Frame rate : 25.000 fps
Resolution : 8 bits
Colorimetry : 4:2:0
Scan type : Progressive
Bits/(Pixel*Frame) : 0.236
Stream size : 525 MiB (92%)
Writing library : XviD 1.2.1 (UTC 2008-12-04)
Audio
ID : 1
Format : MPEG Audio
Format version : Version 1
Format profile : Layer 3
Codec ID : 55
Codec ID/Hint : MP3
Duration : 45mn 58s
Bit rate mode : Constant
Bit rate : 128 Kbps
Channel(s) : 2 channels
Sampling rate : 48.0 KHz
Stream size : 42.1 MiB (7%)
Alignment : Aligned on interleaves
Interleave, duration : 40 ms (1.00 video frame)
Interleave, preload duration : 504 ms
Writing library : LAME3.98r
Encoding settings : -m s -V 4 -q 2 -lowpass 17 -b 128

Скриншоты


Скачать

Скачать торрент!

Как скачивать? · Что такое торрент? · Рейтинг и ограничения

Сайт не распространяет и не хранит электронные версии произведений, а лишь предоставляет доступ к создаваемому пользователями каталогу ссылок на торрент-файлы, которые содержат только списки хеш-сумм

[Профиль] [ЛС]
Показать сообщения:    
Ответить на тему

Текущее время: Сегодня 14:34

Часовой пояс: GMT + 4



Вы не можете начинать темы
Вы не можете отвечать на сообщения
Вы не можете редактировать свои сообщения
Вы не можете удалять свои сообщения
Вы не можете голосовать в опросах
Вы не можете прикреплять файлы к сообщениям
Вы не можете скачивать файлы