ШТРАФБАТ (Николай Досталь) 11 серий из 11 [2004, боевик, драма, военный, DVDRip-AVC]

Ответить на тему
 
Автор Сообщение

user ®

Стаж: 7 лет 7 месяцев

Сообщений: 20008

Пост Пост: #1 от 23-Май-2011 11:10

[Цитировать]

ШТРАФБАТ
Год выпуска: 2004
Жанр: боевик, драма, военный
Продолжительность: 525 мин. (средняя продолжительность серии: 00:47:46 )
Режиссер: Николай Досталь
В ролях: Алексей Серебряков (Твердохлебов Василий Степанович, командир штрафного батальона), Юрий Степанов (Антип Глымов), Александр Баширов (Стира), Илья Коврижных (Савелий Цукерман), Алексей Жарков (генерал-майор Илья Григорьевич Лыков), Роман Мадянов (майор Харченко), Михаил Еремеев (Родянский), Дмитрий Назаров (Отец Михаил), Андрей Смоляков (Фёдор Баукин), Виктор Супрун (гармонист Шлыков), Василий Мищенко (Родион Светличный), Андрей Мерзликин (капитан Вячеслав Бредунов)
Описание: О штрафниках военные историки говорить не любят, их братские могилы безымянны.
Штрафбаты бросали в атаки на самые неприступные участки обороны немцев. Штрафбаты было вовсе не обязательно снабжать боеприпасами и провиантом, часто еду и оружие они добывали сами, в бою.
Смерть окружала их со всех сторон: спереди их косили пулеметы противника, сзади - пулеметы заградотрядов НКВД. Фильм рассказывает о трагических судьбах штрафников, жизнями которых добивались победы в самый тяжелый период Великой Отечественной войны...
Доп. информация: Подходит для записи в коллекцию на 1хDVD9 / 2хDVD5 / 11xCD.

Качество: DVDRip
Формат: MKV
Видео кодек: H.264
Аудио кодек: AC3
Видео: AVC (High@L3.1); 704x480@762x480 (AR 1.5866); ~1773 Kbps; 25 fps
Аудио: AC3; 192 Kbps; CBR; 2 ch

Описание серий. Длительность. Техническая информация

Серия 01
Бежавшего из плена русского офицера Твердохлебова обвиняют в предательстве и в качестве наказания определяют командиром штрафного батальона.
Продолжительность: 00:49:52

MediaInfo

General
Unique ID : 224279990317827654578503229961227768852 (0xA8BAC142F617CB9EB4E68AF656D89414)
Complete name : D:\MyDocs\Videos\Штрафбат\Серия 01.mkv
Format : Matroska
File size : 677 MiB
Duration : 49mn 52s
Overall bit rate : 1 898 Kbps
Movie name : Штрафбат (2004) DVDRip by art1st
Encoded date : UTC 2011-02-25 05:47:37
Writing application : mkvmerge v3.3.0 ('Language') built on Mar 24 2010 14:59:24
Writing library : libebml v0.8.0 + libmatroska v0.9.0
Video
ID : 1
Format : AVC
Format/Info : Advanced Video Codec
Format profile : High@L3.1
Format settings, CABAC : Yes
Format settings, ReFrames : 8 frames
Codec ID : V_MPEG4/ISO/AVC
Duration : 49mn 52s
Bit rate : 1 705 Kbps
Width : 704 pixels
Height : 480 pixels
Display aspect ratio : 1.587
Frame rate : 25.000 fps
Standard : NTSC
Color space : YUV
Chroma subsampling : 4:2:0
Bit depth : 8 bits
Scan type : Progressive
Bits/(Pixel*Frame) : 0.202
Stream size : 595 MiB (88%)
Title : IIITPAFBAT_Disk1_T02.b1705
Writing library : x264 core 92 r1510 33d382a
Encoding settings : cabac=1 / ref=8 / deblock=1:-1:0 / analyse=0x3:0x133 / me=umh / subme=9 / psy=1 / psy_rd=0.60:0.10 / mixed_ref=1 / me_range=16 / chroma_me=1 / trellis=2 / 8x8dct=1 / cqm=0 / deadzone=21,11 / fast_pskip=0 / chroma_qp_offset=-3 / threads=3 / sliced_threads=0 / nr=0 / decimate=0 / interlaced=0 / constrained_intra=0 / bframes=6 / b_pyramid=2 / b_adapt=2 / b_bias=0 / direct=3 / wpredb=1 / wpredp=2 / keyint=250 / keyint_min=25 / scenecut=40 / intra_refresh=0 / rc_lookahead=0 / rc=2pass / mbtree=0 / bitrate=1705 / ratetol=1.0 / qcomp=0.60 / qpmin=10 / qpmax=51 / qpstep=4 / cplxblur=20.0 / qblur=0.5 / vbv_maxrate=16500 / vbv_bufsize=16500 / ip_ratio=1.40 / pb_ratio=1.30 / aq=1:1.00 / nal_hrd=none
Language : Russian
Audio
ID : 2
Format : AC-3
Format/Info : Audio Coding 3
Mode extension : CM (complete main)
Codec ID : A_AC3
Duration : 49mn 52s
Bit rate mode : Constant
Bit rate : 192 Kbps
Channel(s) : 2 channels
Channel positions : Front: L R
Sampling rate : 48.0 KHz
Bit depth : 16 bits
Compression mode : Lossy
Stream size : 68.5 MiB (10%)
Language : Russian
Серия 02
Первый приказ штрафбату Твердохлебова - взять высоту 114, путь к которой лежит через минное поле. Командир организовывает боеспособный отряд.
Продолжительность: 00:50:43

MediaInfo

General
Unique ID : 234093540789343354078097464107859141139 (0xB01CC6A7E544348C8C6758EC90036213)
Complete name : D:\MyDocs\Videos\Штрафбат\Серия 02.mkv
Format : Matroska
File size : 695 MiB
Duration : 50mn 43s
Overall bit rate : 1 916 Kbps
Movie name : Штрафбат (2004) DVDRip by art1st
Encoded date : UTC 2011-02-25 05:47:49
Writing application : mkvmerge v3.3.0 ('Language') built on Mar 24 2010 14:59:24
Writing library : libebml v0.8.0 + libmatroska v0.9.0
Video
ID : 1
Format : AVC
Format/Info : Advanced Video Codec
Format profile : High@L3.1
Format settings, CABAC : Yes
Format settings, ReFrames : 8 frames
Codec ID : V_MPEG4/ISO/AVC
Duration : 50mn 43s
Bit rate : 1 722 Kbps
Width : 704 pixels
Height : 480 pixels
Display aspect ratio : 1.587
Frame rate : 25.000 fps
Standard : NTSC
Color space : YUV
Chroma subsampling : 4:2:0
Bit depth : 8 bits
Scan type : Progressive
Bits/(Pixel*Frame) : 0.204
Stream size : 611 MiB (88%)
Title : IIITPAFBAT_Disk1_T03.b1722
Writing library : x264 core 92 r1510 33d382a
Encoding settings : cabac=1 / ref=8 / deblock=1:-1:0 / analyse=0x3:0x133 / me=umh / subme=9 / psy=1 / psy_rd=0.60:0.10 / mixed_ref=1 / me_range=16 / chroma_me=1 / trellis=2 / 8x8dct=1 / cqm=0 / deadzone=21,11 / fast_pskip=0 / chroma_qp_offset=-3 / threads=3 / sliced_threads=0 / nr=0 / decimate=0 / interlaced=0 / constrained_intra=0 / bframes=6 / b_pyramid=2 / b_adapt=2 / b_bias=0 / direct=3 / wpredb=1 / wpredp=2 / keyint=250 / keyint_min=25 / scenecut=40 / intra_refresh=0 / rc_lookahead=0 / rc=2pass / mbtree=0 / bitrate=1722 / ratetol=1.0 / qcomp=0.60 / qpmin=10 / qpmax=51 / qpstep=4 / cplxblur=20.0 / qblur=0.5 / vbv_maxrate=16500 / vbv_bufsize=16500 / ip_ratio=1.40 / pb_ratio=1.30 / aq=1:1.00 / nal_hrd=none
Language : Russian
Audio
ID : 2
Format : AC-3
Format/Info : Audio Coding 3
Mode extension : CM (complete main)
Codec ID : A_AC3
Duration : 50mn 43s
Bit rate mode : Constant
Bit rate : 192 Kbps
Channel(s) : 2 channels
Channel positions : Front: L R
Sampling rate : 48.0 KHz
Bit depth : 16 bits
Compression mode : Lossy
Stream size : 69.6 MiB (10%)
Language : Russian
Серия 03
Из семисот бойцов отряда после взятия высоты осталось только двести. Даже в благодарность за одержанную победу штрафникам не дают провизии. Батальон голодает уже два дня.
Продолжительность: 00:41:28

MediaInfo

General
Unique ID : 251024658600178489566032514110048552675 (0xBCD99736A87A4A2289CC7145B459C6E3)
Complete name : D:\MyDocs\Videos\Штрафбат\Серия 03.mkv
Format : Matroska
File size : 637 MiB
Duration : 41mn 28s
Overall bit rate : 2 147 Kbps
Movie name : Штрафбат (2004) DVDRip by art1st
Encoded date : UTC 2011-02-25 05:48:04
Writing application : mkvmerge v3.3.0 ('Language') built on Mar 24 2010 14:59:24
Writing library : libebml v0.8.0 + libmatroska v0.9.0
Video
ID : 1
Format : AVC
Format/Info : Advanced Video Codec
Format profile : High@L3.1
Format settings, CABAC : Yes
Format settings, ReFrames : 8 frames
Codec ID : V_MPEG4/ISO/AVC
Duration : 41mn 28s
Bit rate : 1 954 Kbps
Width : 704 pixels
Height : 480 pixels
Display aspect ratio : 1.587
Frame rate : 25.000 fps
Standard : NTSC
Color space : YUV
Chroma subsampling : 4:2:0
Bit depth : 8 bits
Scan type : Progressive
Bits/(Pixel*Frame) : 0.231
Stream size : 567 MiB (89%)
Title : IIITPAFBAT_Disk1_T04.b1954
Writing library : x264 core 92 r1510 33d382a
Encoding settings : cabac=1 / ref=8 / deblock=1:-1:0 / analyse=0x3:0x133 / me=umh / subme=9 / psy=1 / psy_rd=0.60:0.10 / mixed_ref=1 / me_range=16 / chroma_me=1 / trellis=2 / 8x8dct=1 / cqm=0 / deadzone=21,11 / fast_pskip=0 / chroma_qp_offset=-3 / threads=3 / sliced_threads=0 / nr=0 / decimate=0 / interlaced=0 / constrained_intra=0 / bframes=6 / b_pyramid=2 / b_adapt=2 / b_bias=0 / direct=3 / wpredb=1 / wpredp=2 / keyint=250 / keyint_min=25 / scenecut=40 / intra_refresh=0 / rc_lookahead=0 / rc=2pass / mbtree=0 / bitrate=1954 / ratetol=1.0 / qcomp=0.60 / qpmin=10 / qpmax=51 / qpstep=4 / cplxblur=20.0 / qblur=0.5 / vbv_maxrate=16500 / vbv_bufsize=16500 / ip_ratio=1.40 / pb_ratio=1.30 / aq=1:1.00 / nal_hrd=none
Language : Russian
Audio
ID : 2
Format : AC-3
Format/Info : Audio Coding 3
Mode extension : CM (complete main)
Codec ID : A_AC3
Duration : 41mn 28s
Bit rate mode : Constant
Bit rate : 192 Kbps
Channel(s) : 2 channels
Channel positions : Front: L R
Sampling rate : 48.0 KHz
Bit depth : 16 bits
Compression mode : Lossy
Stream size : 57.0 MiB (9%)
Language : Russian
Серия 04
Операция по взятию вражеского "языка" оборачивается для отряда Твердохлебова новыми потерями. Приказ выполнен, но людей, к сожалению, уже не вернуть.
Продолжительность: 00:44:28

MediaInfo

General
Unique ID : 180040932042324925488819142507793801579 (0x87729F4A0B3C5C1BB477F890A838E16B)
Complete name : D:\MyDocs\Videos\Штрафбат\Серия 04.mkv
Format : Matroska
File size : 690 MiB
Duration : 44mn 28s
Overall bit rate : 2 168 Kbps
Movie name : Штрафбат (2004) DVDRip by art1st
Encoded date : UTC 2011-02-25 05:48:21
Writing application : mkvmerge v3.3.0 ('Language') built on Mar 24 2010 14:59:24
Writing library : libebml v0.8.0 + libmatroska v0.9.0
Video
ID : 1
Format : AVC
Format/Info : Advanced Video Codec
Format profile : High@L3.1
Format settings, CABAC : Yes
Format settings, ReFrames : 8 frames
Codec ID : V_MPEG4/ISO/AVC
Duration : 44mn 28s
Bit rate : 1 973 Kbps
Width : 704 pixels
Height : 480 pixels
Display aspect ratio : 1.587
Frame rate : 25.000 fps
Standard : NTSC
Color space : YUV
Chroma subsampling : 4:2:0
Bit depth : 8 bits
Scan type : Progressive
Bits/(Pixel*Frame) : 0.234
Stream size : 615 MiB (89%)
Title : IIITPAFBAT_Disk1_T05.b1973
Writing library : x264 core 92 r1510 33d382a
Encoding settings : cabac=1 / ref=8 / deblock=1:-1:0 / analyse=0x3:0x133 / me=umh / subme=9 / psy=1 / psy_rd=0.60:0.10 / mixed_ref=1 / me_range=16 / chroma_me=1 / trellis=2 / 8x8dct=1 / cqm=0 / deadzone=21,11 / fast_pskip=0 / chroma_qp_offset=-3 / threads=3 / sliced_threads=0 / nr=0 / decimate=0 / interlaced=0 / constrained_intra=0 / bframes=6 / b_pyramid=2 / b_adapt=2 / b_bias=0 / direct=3 / wpredb=1 / wpredp=2 / keyint=250 / keyint_min=25 / scenecut=40 / intra_refresh=0 / rc_lookahead=0 / rc=2pass / mbtree=0 / bitrate=1973 / ratetol=1.0 / qcomp=0.60 / qpmin=10 / qpmax=51 / qpstep=4 / cplxblur=20.0 / qblur=0.5 / vbv_maxrate=16500 / vbv_bufsize=16500 / ip_ratio=1.40 / pb_ratio=1.30 / aq=1:1.00 / nal_hrd=none
Language : Russian
Audio
ID : 2
Format : AC-3
Format/Info : Audio Coding 3
Mode extension : CM (complete main)
Codec ID : A_AC3
Duration : 44mn 28s
Bit rate mode : Constant
Bit rate : 192 Kbps
Channel(s) : 2 channels
Channel positions : Front: L R
Sampling rate : 48.0 KHz
Bit depth : 16 bits
Compression mode : Lossy
Stream size : 61.1 MiB (9%)
Language : Russian
Серия 05
Сбежав от смерти на поле боя, Цукерман рискует найти ее в больнице. Там Савелий встречает капитана Бредунова, из-за драки с которым и попал в штрафбат.
Продолжительность: 00:43:00

MediaInfo

General
Unique ID : 204559922306941431189557600569187888829 (0x99E4CED7BA579027A329690E6E33EEBD)
Complete name : D:\MyDocs\Videos\Штрафбат\Серия 05.mkv
Format : Matroska
File size : 667 MiB
Duration : 43mn 0s
Overall bit rate : 2 167 Kbps
Movie name : Штрафбат (2004) DVDRip by art1st
Encoded date : UTC 2011-02-25 05:48:36
Writing application : mkvmerge v3.3.0 ('Language') built on Mar 24 2010 14:59:24
Writing library : libebml v0.8.0 + libmatroska v0.9.0
Video
ID : 1
Format : AVC
Format/Info : Advanced Video Codec
Format profile : High@L3.1
Format settings, CABAC : Yes
Format settings, ReFrames : 8 frames
Codec ID : V_MPEG4/ISO/AVC
Duration : 43mn 0s
Bit rate : 1 973 Kbps
Width : 704 pixels
Height : 480 pixels
Display aspect ratio : 1.587
Frame rate : 25.000 fps
Standard : NTSC
Color space : YUV
Chroma subsampling : 4:2:0
Bit depth : 8 bits
Scan type : Progressive
Bits/(Pixel*Frame) : 0.234
Stream size : 594 MiB (89%)
Title : IIITPAFBAT_Disk1_T06.b1973
Writing library : x264 core 92 r1510 33d382a
Encoding settings : cabac=1 / ref=8 / deblock=1:-1:0 / analyse=0x3:0x133 / me=umh / subme=9 / psy=1 / psy_rd=0.60:0.10 / mixed_ref=1 / me_range=16 / chroma_me=1 / trellis=2 / 8x8dct=1 / cqm=0 / deadzone=21,11 / fast_pskip=0 / chroma_qp_offset=-3 / threads=3 / sliced_threads=0 / nr=0 / decimate=0 / interlaced=0 / constrained_intra=0 / bframes=6 / b_pyramid=2 / b_adapt=2 / b_bias=0 / direct=3 / wpredb=1 / wpredp=2 / keyint=250 / keyint_min=25 / scenecut=40 / intra_refresh=0 / rc_lookahead=0 / rc=2pass / mbtree=0 / bitrate=1973 / ratetol=1.0 / qcomp=0.60 / qpmin=10 / qpmax=51 / qpstep=4 / cplxblur=20.0 / qblur=0.5 / vbv_maxrate=16500 / vbv_bufsize=16500 / ip_ratio=1.40 / pb_ratio=1.30 / aq=1:1.00 / nal_hrd=none
Language : Russian
Audio
ID : 2
Format : AC-3
Format/Info : Audio Coding 3
Mode extension : CM (complete main)
Codec ID : A_AC3
Duration : 43mn 0s
Bit rate mode : Constant
Bit rate : 192 Kbps
Channel(s) : 2 channels
Channel positions : Front: L R
Sampling rate : 48.0 KHz
Bit depth : 16 bits
Compression mode : Lossy
Stream size : 59.1 MiB (9%)
Language : Russian
Серия 06
Командование решает бросить штрафбат на хорошо укрепленный немцами участок. Солдатам ясно, что это - гиблое место, и большинство людей оттуда не вернется.
Продолжительность: 00:48:09

MediaInfo

General
Unique ID : 207098575802933907904612724932382476039 (0x9BCDBC1FA56A81539440224B92AEC707)
Complete name : D:\MyDocs\Videos\Штрафбат\Серия 06.mkv
Format : Matroska
File size : 695 MiB
Duration : 48mn 9s
Overall bit rate : 2 017 Kbps
Movie name : Штрафбат (2004) DVDRip by art1st
Encoded date : UTC 2011-02-25 05:48:52
Writing application : mkvmerge v3.3.0 ('Language') built on Mar 24 2010 14:59:24
Writing library : libebml v0.8.0 + libmatroska v0.9.0
Video
ID : 1
Format : AVC
Format/Info : Advanced Video Codec
Format profile : High@L3.1
Format settings, CABAC : Yes
Format settings, ReFrames : 8 frames
Codec ID : V_MPEG4/ISO/AVC
Duration : 48mn 9s
Bit rate : 1 824 Kbps
Width : 704 pixels
Height : 480 pixels
Display aspect ratio : 1.587
Frame rate : 25.000 fps
Standard : NTSC
Color space : YUV
Chroma subsampling : 4:2:0
Bit depth : 8 bits
Scan type : Progressive
Bits/(Pixel*Frame) : 0.216
Stream size : 615 MiB (88%)
Title : IIITPAFBAT_Disk1_T07.b1824
Writing library : x264 core 92 r1510 33d382a
Encoding settings : cabac=1 / ref=8 / deblock=1:-1:0 / analyse=0x3:0x133 / me=umh / subme=9 / psy=1 / psy_rd=0.60:0.10 / mixed_ref=1 / me_range=16 / chroma_me=1 / trellis=2 / 8x8dct=1 / cqm=0 / deadzone=21,11 / fast_pskip=0 / chroma_qp_offset=-3 / threads=3 / sliced_threads=0 / nr=0 / decimate=0 / interlaced=0 / constrained_intra=0 / bframes=6 / b_pyramid=2 / b_adapt=2 / b_bias=0 / direct=3 / wpredb=1 / wpredp=2 / keyint=250 / keyint_min=25 / scenecut=40 / intra_refresh=0 / rc_lookahead=0 / rc=2pass / mbtree=0 / bitrate=1824 / ratetol=1.0 / qcomp=0.60 / qpmin=10 / qpmax=51 / qpstep=4 / cplxblur=20.0 / qblur=0.5 / vbv_maxrate=16500 / vbv_bufsize=16500 / ip_ratio=1.40 / pb_ratio=1.30 / aq=1:1.00 / nal_hrd=none
Language : Russian
Audio
ID : 2
Format : AC-3
Format/Info : Audio Coding 3
Mode extension : CM (complete main)
Codec ID : A_AC3
Duration : 48mn 9s
Bit rate mode : Constant
Bit rate : 192 Kbps
Channel(s) : 2 channels
Channel positions : Front: L R
Sampling rate : 48.0 KHz
Bit depth : 16 bits
Compression mode : Lossy
Stream size : 66.1 MiB (10%)
Language : Russian
Серия 07
Солдат из батальона Твердохлебова совершает изнасилование. Майор Харченко хочет привлечь к ответственности за это преступление и провинившегося, и самого комбата.
Продолжительность: 00:49:40

MediaInfo

General
Unique ID : 228087392777692922604877484759486107558 (0xAB9808B22D830D5A99AB72CB712D0FA6)
Complete name : D:\MyDocs\Videos\Штрафбат\Серия 07.mkv
Format : Matroska
File size : 683 MiB
Duration : 49mn 40s
Overall bit rate : 1 921 Kbps
Movie name : Штрафбат (2004) DVDRip by art1st
Encoded date : UTC 2011-02-25 05:49:09
Writing application : mkvmerge v3.3.0 ('Language') built on Mar 24 2010 14:59:24
Writing library : libebml v0.8.0 + libmatroska v0.9.0
Video
ID : 1
Format : AVC
Format/Info : Advanced Video Codec
Format profile : High@L3.1
Format settings, CABAC : Yes
Format settings, ReFrames : 8 frames
Codec ID : V_MPEG4/ISO/AVC
Duration : 49mn 40s
Bit rate : 1 728 Kbps
Width : 704 pixels
Height : 480 pixels
Display aspect ratio : 1.587
Frame rate : 25.000 fps
Standard : NTSC
Color space : YUV
Chroma subsampling : 4:2:0
Bit depth : 8 bits
Scan type : Progressive
Bits/(Pixel*Frame) : 0.205
Stream size : 601 MiB (88%)
Title : IIITPAFBAT_Disk2_T02.b1728
Writing library : x264 core 92 r1510 33d382a
Encoding settings : cabac=1 / ref=8 / deblock=1:-1:0 / analyse=0x3:0x133 / me=umh / subme=9 / psy=1 / psy_rd=0.60:0.10 / mixed_ref=1 / me_range=16 / chroma_me=1 / trellis=2 / 8x8dct=1 / cqm=0 / deadzone=21,11 / fast_pskip=0 / chroma_qp_offset=-3 / threads=3 / sliced_threads=0 / nr=0 / decimate=0 / interlaced=0 / constrained_intra=0 / bframes=6 / b_pyramid=2 / b_adapt=2 / b_bias=0 / direct=3 / wpredb=1 / wpredp=2 / keyint=250 / keyint_min=25 / scenecut=40 / intra_refresh=0 / rc_lookahead=0 / rc=2pass / mbtree=0 / bitrate=1728 / ratetol=1.0 / qcomp=0.60 / qpmin=10 / qpmax=51 / qpstep=4 / cplxblur=20.0 / qblur=0.5 / vbv_maxrate=16500 / vbv_bufsize=16500 / ip_ratio=1.40 / pb_ratio=1.30 / aq=1:1.00 / nal_hrd=none
Language : Russian
Audio
ID : 2
Format : AC-3
Format/Info : Audio Coding 3
Mode extension : CM (complete main)
Codec ID : A_AC3
Duration : 49mn 40s
Bit rate mode : Constant
Bit rate : 192 Kbps
Channel(s) : 2 channels
Channel positions : Front: L R
Sampling rate : 48.0 KHz
Bit depth : 16 bits
Compression mode : Lossy
Stream size : 68.2 MiB (10%)
Language : Russian
Серия 08
В помощь штрафникам направляют артиллерию с противотанковыми орудиями под командованием Бредунова. На поле боя капитан встречает своего заклятого врага Савелия.
Продолжительность: 00:49:56

MediaInfo

General
Unique ID : 248184002992024005400887880632698851607 (0xBAB680142FC4DEB9B4D9C51CB056D117)
Complete name : D:\MyDocs\Videos\Штрафбат\Серия 08.mkv
Format : Matroska
File size : 692 MiB
Duration : 49mn 56s
Overall bit rate : 1 937 Kbps
Movie name : Штрафбат (2004) DVDRip by art1st
Encoded date : UTC 2011-02-26 12:19:40
Writing application : mkvmerge v3.3.0 ('Language') built on Mar 24 2010 14:59:24
Writing library : libebml v0.8.0 + libmatroska v0.9.0
Video
ID : 1
Format : AVC
Format/Info : Advanced Video Codec
Format profile : High@L3.1
Format settings, CABAC : Yes
Format settings, ReFrames : 8 frames
Codec ID : V_MPEG4/ISO/AVC
Duration : 49mn 56s
Bit rate : 1 744 Kbps
Width : 704 pixels
Height : 480 pixels
Display aspect ratio : 1.587
Frame rate : 25.000 fps
Standard : NTSC
Color space : YUV
Chroma subsampling : 4:2:0
Bit depth : 8 bits
Scan type : Progressive
Bits/(Pixel*Frame) : 0.206
Stream size : 610 MiB (88%)
Title : IIITPAFBAT_Disk2_T03.b1744
Writing library : x264 core 92 r1510 33d382a
Encoding settings : cabac=1 / ref=8 / deblock=1:-1:0 / analyse=0x3:0x133 / me=umh / subme=9 / psy=1 / psy_rd=0.60:0.10 / mixed_ref=1 / me_range=16 / chroma_me=1 / trellis=2 / 8x8dct=1 / cqm=0 / deadzone=21,11 / fast_pskip=0 / chroma_qp_offset=-3 / threads=3 / sliced_threads=0 / nr=0 / decimate=0 / interlaced=0 / constrained_intra=0 / bframes=6 / b_pyramid=2 / b_adapt=2 / b_bias=0 / direct=3 / wpredb=1 / wpredp=2 / keyint=250 / keyint_min=25 / scenecut=40 / intra_refresh=0 / rc_lookahead=0 / rc=2pass / mbtree=0 / bitrate=1744 / ratetol=1.0 / qcomp=0.60 / qpmin=10 / qpmax=51 / qpstep=4 / cplxblur=20.0 / qblur=0.5 / vbv_maxrate=16500 / vbv_bufsize=16500 / ip_ratio=1.40 / pb_ratio=1.30 / aq=1:1.00 / nal_hrd=none
Language : Russian
Audio
ID : 2
Format : AC-3
Format/Info : Audio Coding 3
Mode extension : CM (complete main)
Codec ID : A_AC3
Duration : 49mn 56s
Bit rate mode : Constant
Bit rate : 192 Kbps
Channel(s) : 2 channels
Channel positions : Front: L R
Sampling rate : 48.0 KHz
Bit depth : 16 bits
Compression mode : Lossy
Stream size : 68.6 MiB (10%)
Language : Russian
Серия 09
Твердохлебов, измученный пытками в застенках Особого отдела, пытается покончить жизнь самоубийством. Однако в самый решающий момент появляется часовой.
Продолжительность: 00:51:26

MediaInfo

General
Unique ID : 240631048297405338239932530123446385899 (0xB507DAA958C4EF519E7B1F58F0FB7CEB)
Complete name : D:\MyDocs\Videos\Штрафбат\Серия 09.mkv
Format : Matroska
File size : 627 MiB
Duration : 51mn 26s
Overall bit rate : 1 706 Kbps
Movie name : Штрафбат (2004) DVDRip by art1st
Encoded date : UTC 2011-02-26 12:20:01
Writing application : mkvmerge v3.3.0 ('Language') built on Mar 24 2010 14:59:24
Writing library : libebml v0.8.0 + libmatroska v0.9.0
Video
ID : 1
Format : AVC
Format/Info : Advanced Video Codec
Format profile : High@L3.1
Format settings, CABAC : Yes
Format settings, ReFrames : 8 frames
Codec ID : V_MPEG4/ISO/AVC
Duration : 51mn 26s
Bit rate : 1 512 Kbps
Width : 704 pixels
Height : 480 pixels
Display aspect ratio : 1.587
Frame rate : 25.000 fps
Standard : NTSC
Color space : YUV
Chroma subsampling : 4:2:0
Bit depth : 8 bits
Scan type : Progressive
Bits/(Pixel*Frame) : 0.179
Stream size : 544 MiB (87%)
Title : IIITPAFBAT_Disk2_T04.b1512
Writing library : x264 core 92 r1510 33d382a
Encoding settings : cabac=1 / ref=8 / deblock=1:-1:0 / analyse=0x3:0x133 / me=umh / subme=9 / psy=1 / psy_rd=0.60:0.10 / mixed_ref=1 / me_range=16 / chroma_me=1 / trellis=2 / 8x8dct=1 / cqm=0 / deadzone=21,11 / fast_pskip=0 / chroma_qp_offset=-3 / threads=3 / sliced_threads=0 / nr=0 / decimate=0 / interlaced=0 / constrained_intra=0 / bframes=6 / b_pyramid=2 / b_adapt=2 / b_bias=0 / direct=3 / wpredb=1 / wpredp=2 / keyint=250 / keyint_min=25 / scenecut=40 / intra_refresh=0 / rc_lookahead=0 / rc=2pass / mbtree=0 / bitrate=1512 / ratetol=1.0 / qcomp=0.60 / qpmin=10 / qpmax=51 / qpstep=4 / cplxblur=20.0 / qblur=0.5 / vbv_maxrate=16500 / vbv_bufsize=16500 / ip_ratio=1.40 / pb_ratio=1.30 / aq=1:1.00 / nal_hrd=none
Language : Russian
Audio
ID : 2
Format : AC-3
Format/Info : Audio Coding 3
Mode extension : CM (complete main)
Codec ID : A_AC3
Duration : 51mn 26s
Bit rate mode : Constant
Bit rate : 192 Kbps
Channel(s) : 2 channels
Channel positions : Front: L R
Sampling rate : 48.0 KHz
Bit depth : 16 bits
Compression mode : Lossy
Stream size : 70.6 MiB (11%)
Language : Russian
Серия 10
В бою с немцами погибают Харченко и командир батальона Головачев. По приказу генерала Лыкова командиром штрафников снова становится Твердохлебов.
Продолжительность: 00:49:00

MediaInfo

General
Unique ID : 245949671487992396351016192562262533189 (0xB9082F07D23D79DCAAEC31808B456445)
Complete name : D:\MyDocs\Videos\Штрафбат\Серия 10.mkv
Format : Matroska
File size : 609 MiB
Duration : 49mn 0s
Overall bit rate : 1 737 Kbps
Movie name : Штрафбат (2004) DVDRip by art1st
Encoded date : UTC 2011-02-27 14:55:07
Writing application : mkvmerge v3.3.0 ('Language') built on Mar 24 2010 14:59:24
Writing library : libebml v0.8.0 + libmatroska v0.9.0
Video
ID : 1
Format : AVC
Format/Info : Advanced Video Codec
Format profile : High@L3.1
Format settings, CABAC : Yes
Format settings, ReFrames : 8 frames
Codec ID : V_MPEG4/ISO/AVC
Duration : 49mn 0s
Bit rate : 1 543 Kbps
Width : 704 pixels
Height : 480 pixels
Display aspect ratio : 1.587
Frame rate : 25.000 fps
Standard : NTSC
Color space : YUV
Chroma subsampling : 4:2:0
Bit depth : 8 bits
Scan type : Progressive
Bits/(Pixel*Frame) : 0.183
Stream size : 529 MiB (87%)
Title : IIITPAFBAT_Disk2_T05.b1543
Writing library : x264 core 92 r1510 33d382a
Encoding settings : cabac=1 / ref=8 / deblock=1:-1:0 / analyse=0x3:0x133 / me=umh / subme=9 / psy=1 / psy_rd=0.60:0.10 / mixed_ref=1 / me_range=16 / chroma_me=1 / trellis=2 / 8x8dct=1 / cqm=0 / deadzone=21,11 / fast_pskip=0 / chroma_qp_offset=-3 / threads=3 / sliced_threads=0 / nr=0 / decimate=0 / interlaced=0 / constrained_intra=0 / bframes=6 / b_pyramid=2 / b_adapt=2 / b_bias=0 / direct=3 / wpredb=1 / wpredp=2 / keyint=250 / keyint_min=25 / scenecut=40 / intra_refresh=0 / rc_lookahead=0 / rc=2pass / mbtree=0 / bitrate=1543 / ratetol=1.0 / qcomp=0.60 / qpmin=10 / qpmax=51 / qpstep=4 / cplxblur=20.0 / qblur=0.5 / vbv_maxrate=16500 / vbv_bufsize=16500 / ip_ratio=1.40 / pb_ratio=1.30 / aq=1:1.00 / nal_hrd=none
Language : Russian
Audio
ID : 2
Format : AC-3
Format/Info : Audio Coding 3
Mode extension : CM (complete main)
Codec ID : A_AC3
Duration : 49mn 0s
Bit rate mode : Constant
Bit rate : 192 Kbps
Channel(s) : 2 channels
Channel positions : Front: L R
Sampling rate : 48.0 KHz
Bit depth : 16 bits
Compression mode : Lossy
Stream size : 67.3 MiB (11%)
Language : Russian
Серия 11
Батальон штрафников получает приказ преодолеть реку и выбить укрепившихся на том берегу немцев. Командир понимает, что бойцам вряд ли удастся выжить.
Продолжительность: 00:47:51

MediaInfo

General
Unique ID : 254213281389562104138735725207451706549 (0xBF3FB2746B352BF0B7595CF2815DA4B5)
Complete name : D:\MyDocs\Videos\Штрафбат\Серия 11.mkv
Format : Matroska
File size : 692 MiB
Duration : 47mn 51s
Overall bit rate : 2 023 Kbps
Movie name : Штрафбат (2004) DVDRip by art1st
Encoded date : UTC 2011-02-27 14:55:21
Writing application : mkvmerge v3.3.0 ('Language') built on Mar 24 2010 14:59:24
Writing library : libebml v0.8.0 + libmatroska v0.9.0
Video
ID : 1
Format : AVC
Format/Info : Advanced Video Codec
Format profile : High@L3.1
Format settings, CABAC : Yes
Format settings, ReFrames : 8 frames
Codec ID : V_MPEG4/ISO/AVC
Duration : 47mn 51s
Bit rate : 1 828 Kbps
Width : 704 pixels
Height : 480 pixels
Display aspect ratio : 1.587
Frame rate : 25.000 fps
Standard : NTSC
Color space : YUV
Chroma subsampling : 4:2:0
Bit depth : 8 bits
Scan type : Progressive
Bits/(Pixel*Frame) : 0.216
Stream size : 613 MiB (89%)
Title : IIITPAFBAT_Disk2_T06.b1828
Writing library : x264 core 92 r1510 33d382a
Encoding settings : cabac=1 / ref=8 / deblock=1:-1:0 / analyse=0x3:0x133 / me=umh / subme=9 / psy=1 / psy_rd=0.60:0.10 / mixed_ref=1 / me_range=16 / chroma_me=1 / trellis=2 / 8x8dct=1 / cqm=0 / deadzone=21,11 / fast_pskip=0 / chroma_qp_offset=-3 / threads=3 / sliced_threads=0 / nr=0 / decimate=0 / interlaced=0 / constrained_intra=0 / bframes=6 / b_pyramid=2 / b_adapt=2 / b_bias=0 / direct=3 / wpredb=1 / wpredp=2 / keyint=250 / keyint_min=25 / scenecut=40 / intra_refresh=0 / rc_lookahead=0 / rc=2pass / mbtree=0 / bitrate=1828 / ratetol=1.0 / qcomp=0.60 / qpmin=10 / qpmax=51 / qpstep=4 / cplxblur=20.0 / qblur=0.5 / vbv_maxrate=16500 / vbv_bufsize=16500 / ip_ratio=1.40 / pb_ratio=1.30 / aq=1:1.00 / nal_hrd=none
Language : Russian
Audio
ID : 2
Format : AC-3
Format/Info : Audio Coding 3
Mode extension : CM (complete main)
Codec ID : A_AC3
Duration : 47mn 51s
Bit rate mode : Constant
Bit rate : 192 Kbps
Channel(s) : 2 channels
Channel positions : Front: L R
Sampling rate : 48.0 KHz
Bit depth : 16 bits
Compression mode : Lossy
Stream size : 65.7 MiB (9%)
Language : Russian

Скриншоты

с учетом Aspect Ratio:
Скачать

Скачать торрент!

Как скачивать? · Что такое торрент? · Рейтинг и ограничения

Сайт не распространяет и не хранит электронные версии произведений, а лишь предоставляет доступ к создаваемому пользователями каталогу ссылок на торрент-файлы, которые содержат только списки хеш-сумм

[Профиль] [ЛС]
Показать сообщения:    
Ответить на тему

Текущее время: Сегодня 22:19

Часовой пояс: GMT + 4



Вы не можете начинать темы
Вы не можете отвечать на сообщения
Вы не можете редактировать свои сообщения
Вы не можете удалять свои сообщения
Вы не можете голосовать в опросах
Вы не можете прикреплять файлы к сообщениям
Вы не можете скачивать файлы