Зайцев + 1 / Сезон: 1 Серии: 1-19 из 24 (Максим Пежемский) [2011, ситком, комедия, SATRip]

Ответить на тему
 
Автор Сообщение

user ®

Стаж: 7 лет 7 месяцев

Сообщений: 20008

Пост Пост: #1 от 17-Май-2011 12:24

[Цитировать]

Зайцев + 1 Год выпуска: 2011
Производство: Продакшин ТВА
Жанр: ситком, комедия
Продолжительность: 00:25:00
Режиссёр: Максим Пежемский
В ролях: Филипп Котов, Михаил Галустян, Наталья Костенева, Иван Громов, Александр Солдаткин
Описание: Саша Зайцев – московский студент. Он похож на миллионы своих сверстников, но при этом очень отличается от окружающих. С одной стороны, у Саши есть очки, вид затюканного ботаника и неразделенная любовь. С другой стороны, у Саши - раздвоение личности. Нет, он не разговаривает сам с собой в шапочке из фольги. Просто если Сашу бьют по голове, он превращается в Федора, подозрительно похожего на актера Михаила Галустяна. Федор, в отличие от Саши, знает, что делать со своими желаниями - немедленно исполнять! Хочется нахамить соседу? Зажать на вечеринке однокурсницу? Угнать джип? Саша никогда бы на это не решился, если бы в нем периодически не пробуждался Федор. По словам режиссера проекта Максима Пежемского, «Зайцев+1» - это история о том, как от человека сбежало его либидо и живет само по себе: «Мы сняли ситком про пубертатный период студентов, где-то задержавшихся во взрослении, но сексуально озабоченных». «Зайцев +1» гораздо больше похож на кино, чем на традиционный ситком. В нем нет привычной и обычной для этого жанра откровенной театральности и закадрового смеха. Он снят одной камерой. «Интерны» и «Реальные пацаны» вывели жанр ситкома на новый уровень. «Зайцев+1» продолжает это движение. Главную роль – роль Саши Зайцева – играет молодой талантливый актер Филипп Котов. Также главную роль играет Михаил Галустян - он тоже Саша, но только тогда, когда тот становится Федором. Попробуем разобраться без психиатра?
Качество: SATRip
Формат: AVI
Видео кодек: XviD
Аудио кодек: MP3
Видео: 704x384 (1.83:1), 25 fps, XviD build 62 ~1297 kbps avg, 0.19 bit/pixel
Аудио: 48 kHz, MPEG Layer 3, 2 ch, ~128.00 kbps avgСэмпл

MI

General
Complete name : C:\Documents and Settings\Администратор\Рабочий стол\Zaicev.+1.1.Seriya.SatRip.by.Drek.avi
Format : AVI
Format/Info : Audio Video Interleave
File size : 224 MiB
Duration : 21mn 47s
Overall bit rate : 1 436 Kbps
Writing application : VirtualDubModRus 1.5.10.2 (build 2542/release)
Writing library : VirtualDubMod build 2542/release
Video
ID : 0
Format : MPEG-4 Visual
Format profile : Advanced Simple@L5
Format settings, BVOP : Yes
Format settings, QPel : No
Format settings, GMC : No warppoints
Format settings, Matrix : Default (MPEG)
Codec ID : XVID
Codec ID/Hint : XviD
Duration : 21mn 47s
Bit rate : 1 298 Kbps
Width : 704 pixels
Height : 384 pixels
Display aspect ratio : 16:9
Frame rate : 25.000 fps
Resolution : 8 bits
Colorimetry : 4:2:0
Scan type : Progressive
Bits/(Pixel*Frame) : 0.192
Stream size : 202 MiB (90%)
Writing library : XviD 62
Audio
ID : 1
Format : MPEG Audio
Format version : Version 1
Format profile : Layer 3
Mode : Joint stereo
Format_Settings_ModeExtension : MS Stereo
Codec ID : 55
Codec ID/Hint : MP3
Duration : 21mn 47s
Bit rate mode : Constant
Bit rate : 128 Kbps
Channel(s) : 2 channels
Sampling rate : 48.0 KHz
Stream size : 20.0 MiB (9%)
Alignment : Split accross interleaves
Interleave, duration : 40 ms (1.00 video frame)
Interleave, preload duration : 500 ms
Writing library : LAMEЄ

Раздача ведется путем добавления новых серий.

Внимание! Раздача ведётся путём добавления новых серий. При каждом добавлении создаётся новый торрент. Чтобы начать докачку новой серии, пользователям необходимо сделать следующее:
1. остановить скачивание;
2. удалить старый торрент у себя из клиента (старые серии удалять не надо);
3. скачать новый торрент и запустить его у себя в клиенте вместо старого, при этом указать клиенту путь в старую папку куда и должно происходить скачивание новых серий.
Ваш клиент при этом должен произвести хеширование (проверку) старой папки (если не производит сам - помогите ему сделать это), и будет докачивать только те серии которых у вас ещё нет. Старые серии при этом не удаляются, а продолжают раздаваться!
Eсли вы уже удалили старые серии, то предотвратить повторную закачку старых серий можно, отжав галочку в соответствующих местах при запуске нового торрента.

Скриншоты

Скачать

Скачать торрент!

Как скачивать? · Что такое торрент? · Рейтинг и ограничения

Сайт не распространяет и не хранит электронные версии произведений, а лишь предоставляет доступ к создаваемому пользователями каталогу ссылок на торрент-файлы, которые содержат только списки хеш-сумм

[Профиль] [ЛС]
Показать сообщения:    
Ответить на тему

Текущее время: Сегодня 20:18

Часовой пояс: GMT + 4



Вы не можете начинать темы
Вы не можете отвечать на сообщения
Вы не можете редактировать свои сообщения
Вы не можете удалять свои сообщения
Вы не можете голосовать в опросах
Вы не можете прикреплять файлы к сообщениям
Вы не можете скачивать файлы