Не отпускай меня / Never Let Me Go (Марк Романек / Mark Romanek) [2010, США, Великобритания, фантастика, триллер, драма, HDRip] DVO + Sub (rus, eng)

Ответить на тему
 
Автор Сообщение

user ®

Стаж: 11 лет

Сообщений: 15151

Пост Пост: #1 от 08-Мар-2011 11:12

[Цитировать]

Не отпускай меня / Never Let Me Go
Страна: США, Великобритания
Студия: DNA Films, Film4, Fox Searchlight Pictures
Жанр: фантастика, триллер, драма
Год выпуска: 2010
Продолжительность: 01:44:02
Перевод: Любительский (двухголосый)
Субтитры: русский, английский
Оригинальная аудиодорожка: нет
Режиссер: Марк Романек / Mark Romanek
В ролях:Кэри Маллиган, Эндрю Гарфилд, Кира Найтли, Иззи Мейкл-Смолл, Чарли Роу, Элла Пурнелла, Шарлотта Рэмплинг, Салли Хокинс, Кейт Боуc Ренна, Ханна Шар...
Описание: Троица главных героев выросла в интернате и была лишена любого контакта с окружающим миром. Но со временем друзья узнают, что они на самом деле — клоны, выращиваемые для донорства органов.

Бюджет: $15 000 000

Тип релиза: HDRip
Контейнер: AVI
Видео: 720x304 (2.35:1), 23.976 fps, XVID ~1614 kbps avg, 0.307 bit/pixel
Аудио : Русский, 48 kHz, AC3, 6 ch, 384.00 kbps Constant
Формат субтитров: SoftSub (srt)

MediaInfo

Общее
Полное имя : Ne.otpuskaj.menja.2010.L2.HDRip.avi
Формат : AVI
Формат/Информация : Audio Video Interleave
Размер файла : 1,46 Гбайт
Продолжительность : 1 ч. 44 м.
Общий поток : 2007 Кбит/сек
Программа кодирования : VirtualDubMod 1.5.10.3 (build 2550/release)
Библиотека кодирования : VirtualDubMod build 2550/release
Видео
Идентификатор : 0
Формат : MPEG-4 Visual
Профиль формата : Advanced Simple@L5
Параметр BVOP формата : Да
Параметр QPel формата : Нет
Параметр GMC формата : Без точки перехода
Параметр матрицы формата : Выборочная
Идентификатор кодека : XVID
Идентификатор кодека/Подсказка : XviD
Продолжительность : 1 ч. 44 м.
Битрейт : 1614 Кбит/сек
Ширина : 720 пикс.
Высота : 304 пикс.
Соотношение сторон : 2,35:1
Частота кадров : 23,976 кадр/сек
Цветовое пространство : YUV
Подвыборка цветности : 4:2:0
Битовая глубина : 8 бит
Тип развёртки : Прогрессивная
Метод сжатия : С потерями
Бит/(Пиксели*Кадры) : 0.307
Размер потока : 1,17 Гбайт (80%)
Библиотека кодирования : XviD 60
Аудио
Идентификатор : 1
Формат : AC-3
Формат/Информация : Audio Coding 3
Расширение режима : CM (complete main)
Идентификатор кодека : 2000
Продолжительность : 1 ч. 44 м.
Вид битрейта : Постоянный
Битрейт : 384 Кбит/сек
Канал(ы) : 6 канала(ов)
Расположение каналов : Front: L C R, Side: L R, LFE
Частота : 48,0 КГц
Битовая глубина : 16 бит
Метод сжатия : С потерями
Размер потока : 286 Мбайт (19%)
Выравнивание : Разделение по промежуткам
Продолжительность промежутка : 42 мс. (1,00 видеокадр)
Время предзагрузки промежутка : 500 ms

Скриншот с названием

Скриншоты

Скачать

Скачать торрент! Не отпускай меня / Never Let Me Go (Марк Романек / Mark Romanek) [2010, США, Великобритания, фантастика, триллер, драма, HDRip] DVO + Sub (rus, eng)

Как скачивать? · Что такое торрент? · Рейтинг и ограничения

Сайт не распространяет и не хранит электронные версии произведений, а лишь предоставляет доступ к создаваемому пользователями каталогу ссылок на торрент-файлы, которые содержат только списки хеш-сумм

[Профиль] [ЛС]
Показать сообщения:    
Ответить на тему

Текущее время: Сегодня 14:04

Часовой пояс: GMT + 4



Вы не можете начинать темы
Вы не можете отвечать на сообщения
Вы не можете редактировать свои сообщения
Вы не можете удалять свои сообщения
Вы не можете голосовать в опросах
Вы не можете прикреплять файлы к сообщениям
Вы не можете скачивать файлы