Самый гламурный фильм / Drop Dead Gorgeous (Филип Элдертон / Philip Alderton.) [2010, США, драма, комедия, DVDRip] MVO

Ответить на тему
 
Автор Сообщение

user ®

Стаж: 11 лет

Сообщений: 15151

Пост Пост: #1 от 08-Мар-2011 11:09

[Цитировать]

Самый гламурный фильм / Drop Dead Gorgeous
-Страна: США
Жанр: Драма, комедия.
Год выпуска: 2010
Продолжительность: 01:32:35-Перевод: Профессиональный (многоголосый закадровый) [Лицензия]
Cубтитры: нет
Режиссер: Филип Элдертон / Philip Alderton-В ролях: Стивен Беркофф, Джереми Лондон, Джошуа Кокс, Николас Айронс, Наташа Алам, Вернон Уэллс, Керстен Берман, Айви Леван, Дэвид Аваллоне, Никки Флюкс.-Описание: Смерть — не повод разорвать контракт. И когда Синтия, лицо новой рекламной компании, неожиданно умирает прямо на съемочной площадке, агенты принимают решение… не останавливать начатую работу! С помощью стилистов и дорогой косметики, звезда гламура будет выглядеть «как живая». Поверьте, это станет самой незабываемой фотосессией, ведь им придется идти на невероятные ухищрения, чтобы скрыть смерть модели…
-Сэмпл: http://multi-up.com/446252
Качество видео: DVDRip
Формат видео: AVI-Видео: 720x400 (1.80:1), 25 fps, XviD MPEG-4, ~1721 kbps avg, 0.239 bit/pixel.
Аудио: 48 kHz, AC3 Dolby Digital, 3/2 (L,C,R,l,r) + LFE ch, ~384 kbps avg.

MediaInfo

D:\игры\дакументы\Фильмы\samiy.glamurniy.film.2010.DVDRip.avi
General
Complete name : D:\игры\дакументы\Фильмы\samiy.glamurniy.film.2010.DVDRip.avi
Format : AVI
Format/Info : Audio Video Interleave
File size : 1.37 GiB
Duration : 1h 32mn
Overall bit rate : 2 116 Kbps
Writing application : VirtualDubMod 1.5.10.2 (build 2540/release)
Writing library : VirtualDubMod build 2540/release
Video #0
ID : 0
Format : MPEG-4 Visual
Format profile : AdvancedSimple@L5
Format settings, BVOP : Yes
Format settings, QPel : No
Format settings, GMC : No warppoints
Format settings, Matrix : Default (MPEG)
Muxing mode : Packed bitstream
Codec ID : XVID
Codec ID/Hint : XviD
Duration : 1h 32mn
Bit rate : 1 722 Kbps
Width : 720 pixels
Height : 400 pixels
Display aspect ratio : 16:9
Frame rate : 25.000 fps
Resolution : 24 bits
Colorimetry : 4:2:0
Scan type : Progressive
Bits/(Pixel*Frame) : 0.239
Stream size : 1.11 GiB (81%)
Writing library : XviD 1.2.0SMP (UTC 2006-01-08)
Audio #1
ID : 1
Format : AC-3
Format/Info : Audio Coding 3
Codec ID : 2000
Duration : 1h 32mn
Bit rate mode : Constant
Bit rate : 384 Kbps
Channel(s) : 6 channels
Channel positions : Front: L C R, Surround: L R, LFE
Sampling rate : 48.0 KHz
Stream size : 254 MiB (18%)
Alignment : Split accross interleaves
Interleave, duration : 40 ms (1.00 video frame)
Interleave, preload duration : 500 ms

Скриншот c названием фильма

Скриншоты




Скачать

Скачать торрент! Самый гламурный фильм / Drop Dead Gorgeous (Филип Элдертон / Philip Alderton.) [2010, США, драма, комедия, DVDRip] MVO

Как скачивать? · Что такое торрент? · Рейтинг и ограничения

Сайт не распространяет и не хранит электронные версии произведений, а лишь предоставляет доступ к создаваемому пользователями каталогу ссылок на торрент-файлы, которые содержат только списки хеш-сумм

[Профиль] [ЛС]
Показать сообщения:    
Ответить на тему

Текущее время: Сегодня 08:05

Часовой пояс: GMT + 4



Вы не можете начинать темы
Вы не можете отвечать на сообщения
Вы не можете редактировать свои сообщения
Вы не можете удалять свои сообщения
Вы не можете голосовать в опросах
Вы не можете прикреплять файлы к сообщениям
Вы не можете скачивать файлы