Я плюю на ваши могилы / I Spit on Your Grave (Стивен Р. Монро / Steven R. Monroe) [2010, США, ужасы, триллер, криминал, HDRip] DUB (R5) + Original (eng) + Sub (rus) unrated

Ответить на тему
 
Автор Сообщение

user ®

Стаж: 11 лет

Сообщений: 15151

Пост Пост: #1 от 27-Фев-2011 19:00

[Цитировать]

Я плюю на ваши могилы / I Spit on Your Grave [unrated]
Страна: США
Студия: Family of the Year Productions
Жанр: ужасы, триллер, криминал
Год выпуска: 2010
Продолжительность: 01:48:14
Перевод: Профессиональный (дублированный)
Субтитры: русский
Оригинальная аудиодорожка: английский
Режиссер: Стивен Р. Монро / Steven R. Monroe
В ролях: Сара Батлер, Джефф Брэнсон, Эндрю Ховард, Дэниел Фрэнзиси, Родни Истман, Чэд Линдберг, Трейси Уолтер, Молли Миллиган, Саксон Шарбино, Эмбер Даун Лэндрум...
Роли дублировали: Татьяна Шитова, Михаил Георгиу
Описание: Молодая писательница Дженнифер снимает домик в глухом лесу, чтобы в уединении написать роман. Но издатель не дождется нового бестселлера… Четверо местных отморозков жестоко насилуют девушку и обрекают ее на мучительную смерть. Но Дженнифер сумела выжить и теперь ее единственная цель — месть. И месть эта будет столь ужасной, что бывшие насильники проклянут тот день, когда встретили ее впервые…

Бюджет: $1 500 000

Качество видео: HDRip, источник: BDRip 1080p
Формат видео: AVI
Видео: 640x272 (2.35:1), 23.976 fps, XVID ~825 kbps avg, 0.198 bit/pixel
Аудио 1: Русский, 48 kHz, МР3, 2 ch, 128.00 kbps Constant
Аудио 2: Английский, 48 kHz, МР3, 2 ch, 128.00 kbps Constant (отдельным файлом)
Формат субтитров: SoftSub (srt)

MediaInfo

Общее
Полное имя : Ya.pljuju.na.vashi.mogily.2010.D.HDRip.745MB.avi
Формат : AVI
Формат/Информация : Audio Video Interleave
Размер файла : 745 Мбайт
Продолжительность : 1 ч. 48 м.
Общий поток : 962 Кбит/сек
Программа кодирования : VirtualDubModRus 1.5.10.2 (build 2542/release)
Библиотека кодирования : VirtualDubMod build 2542/release
Видео
Идентификатор : 0
Формат : MPEG-4 Visual
Профиль формата : Advanced Simple@L5
Параметр BVOP формата : Да
Параметр QPel формата : Нет
Параметр GMC формата : Без точки перехода
Параметр матрицы формата : Выборочная
Идентификатор кодека : XVID
Идентификатор кодека/Подсказка : XviD
Продолжительность : 1 ч. 48 м.
Битрейт : 825 Кбит/сек
Ширина : 640 пикс.
Высота : 272 пикс.
Соотношение сторон : 2,35:1
Частота кадров : 23,976 кадр/сек
Цветовое пространство : YUV
Подвыборка цветности : 4:2:0
Битовая глубина : 8 бит
Тип развёртки : Прогрессивная
Метод сжатия : С потерями
Бит/(Пиксели*Кадры) : 0.198
Размер потока : 639 Мбайт (86%)
Библиотека кодирования : XviD 1.2.1 (UTC 2008-12-04)
Аудио
Идентификатор : 1
Формат : MPEG Audio
Версия формата : Version 1
Профиль формата : Layer 3
Режим : Joint stereo
Расширение режима : MS Stereo
Идентификатор кодека : 55
Идентификатор кодека/Подсказка : MP3
Продолжительность : 1 ч. 48 м.
Вид битрейта : Постоянный
Битрейт : 128 Кбит/сек
Канал(ы) : 2 канала(ов)
Частота : 48,0 КГц
Метод сжатия : С потерями
Размер потока : 99,1 Мбайт (13%)
Выравнивание : Соединение по промежуткам
Продолжительность промежутка : 42 мс. (1,00 видеокадр)
Время предзагрузки промежутка : 504 ms

Скриншот с названием

Скриншоты

Скачать

Скачать торрент! Я плюю на ваши могилы / I Spit on Your Grave (Стивен Р. Монро / Steven R. Monroe) [2010, США, ужасы, триллер, криминал, HDRip] DUB (R5) + Original (eng) + Sub (rus) unrated

Как скачивать? · Что такое торрент? · Рейтинг и ограничения

Сайт не распространяет и не хранит электронные версии произведений, а лишь предоставляет доступ к создаваемому пользователями каталогу ссылок на торрент-файлы, которые содержат только списки хеш-сумм

[Профиль] [ЛС]
Показать сообщения:    
Ответить на тему

Текущее время: Сегодня 23:56

Часовой пояс: GMT + 4



Вы не можете начинать темы
Вы не можете отвечать на сообщения
Вы не можете редактировать свои сообщения
Вы не можете удалять свои сообщения
Вы не можете голосовать в опросах
Вы не можете прикреплять файлы к сообщениям
Вы не можете скачивать файлы