Гусар / Gusar (Сезон 1 , (Сезон 1 , Серия 1-18 из 18 ) (Заур Болотаев, Рустам Мосафир) [2020, Комедия , WEB-DLRip - HEVC - 1080p]

Ответить на тему
 
Автор Сообщение

Nikolai.Baranov ®

Пол:

Стаж: 3 года 4 месяца

Сообщений: 203

Откуда: Красногорск

Пост Пост: #1 от 31-Окт-2020 19:03

[Цитировать]

---- -- Гусар / Gusar - (Сезон 1 , Серия 1-18 из 18 ) - Полный Комплект --Год выпуска: 2020
Выпущено: Россия , Comedy Club Production по заказу телеканала ТНТ
Жанр: Комедия
Продолжительность:00:25:00
Сезон:1
Серия:1-18
Количество серий в сезоне:18 --Озвучка #1: Русский --Релиз Без Рекламы -- -- Заур Болотаев, Рустам Мосафир--В ролях: Гарик Харламов, Павел Рассомахин, Екатерина Ковальчук, Екатерина Радченко, Сергей Белов, Валерия Кристиансен, Светлана Фролова-- В результате научного эксперимента ученого энтузиаста в наши дни из 1812 года переносится поручик лейб-гвардии гусарского полка Григорий Савельевич Рыльский. Поручик попадает в молодую семью ученого Мити, которая находится на грани развода. При попытке вернуть Гусара обратно в прошлое, машина времени ломается, и поручик вынужден оставаться в XXI веке, пока ученый не починит машину.-- --Качество : -WEB-DLRip - HEVC - 1080p.
Формат: MKV
Видео кодек: H265
Видео: 3332 Кбит/сек,1904х1072 (16.9),в 25.000 кадр/сек, HEVC (Main10@L5.2@Main)--Аудио Кодек: AC3
Аудио #1: @DD5.1 AC3 , 384 Kbps, 48.0 KHz, 6 ch -Русский--

Доп. информация:

Звуковая дорожка сделана путем наложения чистого голоса озвучивателей на центральный канал оригинальной дорожки. Качество идентично звуковой дорожке.
--

MediaInfo

Общее
Уникальный идентификатор : 322000100869008045062078658422263830845 (0xF23EF6B0D832C60D39FBF68351F8D93D)
Полное имя : E:\Baranov\Гусар - Gusar\Gusar_2020_S01_HEVC- 10Bit_Н265_DD5.1_N.B_HD_1080_Rus\Gusar_2020_S01E01-E05_HEVC_DD5.1_N.B_HD_1080_Rus.mkv
Формат : Matroska
Версия формата : Version 4
Размер файла : 2,86 Гбайт
Продолжительность : 1 ч. 49 м.
Общий поток : 3 718 Кбит/сек
Название фильма : Gusar 2020 S01E01-E05 @ Nikolai.Baranov & PIRATIYA
Дата кодирования : UTC 2020-10-31 09:12:16
Программа кодирования : mkvmerge v51.0.0 ('I Wish') 64-bit
Библиотека кодирования : libebml v1.4.0 + libmatroska v1.6.2
Видео
Идентификатор : 1
Формат : HEVC
Формат/Информация : High Efficiency Video Coding
Профиль формата : Main 10@L5.2@Main
Идентификатор кодека : V_MPEGH/ISO/HEVC
Продолжительность : 1 ч. 49 м.
Битрейт : 3 332 Кбит/сек
Ширина : 1 904 пикселя
Высота : 1 072 пикселя
Соотношение сторон : 16:9
Режим частоты кадров : Постоянный
Частота кадров : 25,000 кадров/сек
Цветовое пространство : YUV
Субдискретизация насыщенности : 4:2:0
Битовая глубина : 10 бит
Бит/(Пиксели*Кадры) : 0.065
Размер потока : 2,56 Гбайт (90%)
Заголовок : Gusar_2020_S01E01-E05_HEVC_DD5.1_N.B_HD_1080_Rus
Язык : Russian
Default : Да
Forced : Нет
Цветовой диапазон : Full
Основные цвета : BT.709
Характеристики трансфера : BT.709
Коэффициенты матрицы : BT.709
Аудио
Идентификатор : 2
Формат : AC-3
Формат/Информация : Audio Coding 3
Коммерческое название : Dolby Digital
Идентификатор кодека : A_AC3
Продолжительность : 1 ч. 49 м.
Вид битрейта : Постоянный
Битрейт : 384 Кбит/сек
Каналы : 6 каналов
Channel layout : L R C LFE Ls Rs
Частота : 48,0 КГц
Частота кадров : 31,250 кадров/сек (1536 SPF)
Метод сжатия : С потерями
Размер потока : 302 Мбайт (10%)
Заголовок : Original@DD5.1 AC3 , 384 Kbps, 48.0 KHz, 6 ch
Язык : Russian
Service kind : Complete Main
Default : Да
Forced : Нет
Меню
00:00:00.000 : ru:Глава 01 / ru:Глава 01
--

Скриншоты

---- --

Как закачать отдельный файл

1. Открыть торрент
2. Снять галки с тех файлов торрента, которые мы не хотим закачивать. Оставляем только на нужных нам файлах (файле).
3. Нажать О.К.
В клиенте utorrent
Инструкция
1) Открыть торрент

2) Снять галки с тех файлов торрента, которые мы не хотим закачивать:
* либо вручную, снимая с каждого файла галку( скрин №1)
* либо, нажав кнопку "Снять метки (Select None)", сняв сразу со всех файлов(скрин №2)
№1

№2

Оставляем только на нужных нам файлах (файле).

3)Нажать О.К
-- -- ----Релиз от: Nikolai.Baranov & PIRATIYA . Поблагодарить:
ЯД: 410017546713876
-- -- -- --Время раздачи : 24/7---
Скачать

Скачать торрент! Гусар / Gusar (Сезон 1 , (Сезон 1 , Серия 1-18 из 18 ) (Заур Болотаев, Рустам Мосафир) [2020, Комедия , WEB-DLRip - HEVC - 1080p]

Как скачивать? · Что такое торрент? · Рейтинг и ограничения

Сайт не распространяет и не хранит электронные версии произведений, а лишь предоставляет доступ к создаваемому пользователями каталогу ссылок на торрент-файлы, которые содержат только списки хеш-сумм

загрузка...

_________________

Легко быть оптимистом, когда судьба не валит с ног тяжелыми ударами, а лишь иногда легонько шлепает по заднице.
[Профиль] [ЛС]
Показать сообщения:    
Ответить на тему

Текущее время: Сегодня 20:49

Часовой пояс: GMT + 4



Вы не можете начинать темы
Вы не можете отвечать на сообщения
Вы не можете редактировать свои сообщения
Вы не можете удалять свои сообщения
Вы не можете голосовать в опросах
Вы не можете прикреплять файлы к сообщениям
Вы не можете скачивать файлы