Призраки усадьбы Блай / The Haunting of Bly Manor (Сезон 1 , Серия 1 - 9 из 9 ) (Киран Фой, Лиам Гэвин) [2020,Ужасы, триллер, драма, детектив,WEB-DLRip - HEVC 10bit - 1080p] [DUB SDI Media +LostFilm +NewStudio+Jaskier+ Eng]+[Subs Rus , ENG]

Ответить на тему
 
Автор Сообщение

Nikolai.Baranov ®

Пост Пост: #1 от 22-Окт-2020 13:04

[Цитировать]

---- ---- Призраки усадьбы Блай / The Haunting of Bly Manor (Сезон 1 , Серия 1 -9 из 9 ) - Полный Комплект --- --Год выпуска: 2020
Выпущено: США , Amblin Television, Intrepid Pictures, Paramount Television Studios
Жанр: Ужасы, триллер, драма, детектив
Продолжительность:00:55:00
Сезон:1
Серия:1 -9
Количество серий в сезоне: 9--Озвучка # 1: Профессиональный многоголосый- LostFilm - Русский
Озвучка # 2: Дублированный - SDI Media - Русский
Озвучка # 3: Профессиональный многоголосый- NewStudio - Русский
Озвучка # 4: Профессиональный многоголосый-Jaskier - Русский
Озвучка #3: Профессиональный многоголосый -Английский - Оригинал--Субтитры (UTF-8): вшитые
#1 - Русские - Russian (включены по умолчанию)
#2 - Русские- Russian (Forced)
#3- Английские - English (SDH)--Внешние:
#1- Английские - English (SDH)
#2 - Русские- Russian (Forced)
#3 - Русские- Russian
--Релиз Без Рекламы --MDB 7.6 --Режиссеры:
Киран Фой, Лиам Гэвин, Аксель Кэролин --В ролях: Тахира Шариф, Бен Эйнсуорт, Александра Эссоу, Амелия Ив, Т’Ниа Миллер, Оливер Джексон-Коэн, Рахул Коли, Генри Томас, Виктория Педретти, Джим Пиддок -- 2007 год, Лос-Анджелес. На предсвадебном банкете одна и гостий рассказывает длинную историю собравшимся у уютного камина. В 1987 году в Лондоне американка Дэни Клейтон ищет работу. Она устраивается няней к двум сиротам - восьмилетней Флоре и десятилетнему Майлзу, проживающим с прислугой в шикарной усадьбе Блай. Их родной дядя занят делами в Лондоне, родители погибли, а предыдущая няня умерла совсем недавно, но дети, кажется, не слишком переживают по этому поводу. В первый же вечер маленькая Флора просит Дэни не выходить ночью из комнаты, а Майлз проявляет замашки взрослого мужчины. -- --Качество :
-WEB-DLRip - HEVC 10bit - 1080p.
Формат: MKV
Видео кодек: H265
Видео: 3457 Кбит/сек,1920х960(2.000), в 24.000 кадр/сек , HEVC (Main10@L5.2@Main)--Аудио Кодек:AC3
Аудио #1: MVO LostFilm @DD5.1 AC3, 640 Kbps, 48.0 KHz, 6 ch - LostFilm - Русский
Аудио #2: DUB Rus SDI Media @DD5.1 E-AC3 , 640 Kbps, 48.0 KHz, 6 ch -
SDI Media - Русский
Аудио #3: MVO NewStudio @DD5.1 AC3, 384 Kbps, 48.0 KHz, 6 ch - NewStudio - Русский
Аудио #4: MVO Jaskier @DD5.1 AC3, 384 Kbps, 48.0 KHz, 6 ch - Jaskier - Русский
Аудио #5: Original@DD5.1 E-AC3 ,768 Kbps, 48.0 KHz, 6 ch - English - Оригинал-

Доп. информация:

Звуковая дорожка сделана путем наложения чистого голоса озвучивателей на центральный канал оригинальной дорожки. Качество идентично звуковой дорожке.
--

Список эпизодов сезона


1 сезон 1 серия - Большой хороший дом - The Great Good Place
1 сезон 2 серия - Ученик - The Pupil
1 сезон 3 серия - Два лица: часть первая - The Two Faces, Part One
1 сезон 4 серия - Как все было - The Way It Came
1 сезон 5 серия - Алтарь мёртвых - The Altar of the Dead
1 сезон 6 серия - Уголок радости - The Jolly Corner
1 сезон 7 серия - Два лица: часть вторая - The Two Faces, Part Two
1 сезон 8 серия - История старых одеяний - The Romance of Certain Old Clothes1 сезон 9 1 сезон 9 серия - Зверь в джунглях - The Beast in the Jungle
--

MediaInfo

Общее
Уникальный идентификатор : 57109995812842010202915462524734222832 (0x2AF6FC2FE7C77FE9680CFDD9D11F31F0)
Полное имя : F:\Призраки усадьбы Блай - The Haunting of Bly Manor\The.Haunting.of.Bly.Manor.S01_HEVC_DD5.1_N.B_HD_1080_DUB_4x_Rus_Eng\The.Haunting.of.Bly.Manor.S01E01_HEVC_DD5.1_N.B_HD_1080_DUB_4x_Rus_Eng.mkv
Формат : Matroska
Версия формата : Version 4
Размер файла : 2,36 Гбайт
Продолжительность : 54 м. 11 с.
Общий поток : 6 248 Кбит/сек
Название фильма : The Haunting of Bly Manor 2020 S01E01 @ Nikolai.Baranov & PIRATIYA
Дата кодирования : UTC 2020-10-21 11:05:39
Программа кодирования : mkvmerge v51.0.0 ('I Wish') 64-bit
Библиотека кодирования : libebml v1.4.0 + libmatroska v1.6.2
Видео
Идентификатор : 1
Формат : HEVC
Формат/Информация : High Efficiency Video Coding
Профиль формата : Main 10@L5.2@Main
Идентификатор кодека : V_MPEGH/ISO/HEVC
Продолжительность : 54 м. 10 с.
Битрейт : 3 457 Кбит/сек
Ширина : 1 920 пикселей
Высота : 960 пикселей
Соотношение сторон : 2,000
Режим частоты кадров : Постоянный
Частота кадров : 24,000 кадра/сек
Цветовое пространство : YUV
Субдискретизация насыщенности : 4:2:0
Битовая глубина : 10 бит
Бит/(Пиксели*Кадры) : 0.078
Размер потока : 1,31 Гбайт (55%)
Заголовок : The.Haunting.of.Bly.Manor.S01E01_HEVC_DD5.1_N.B_HD_1080_DUB_4x_Rus_Eng
Язык : Russian
Default : Да
Forced : Нет
Цветовой диапазон : Full
Основные цвета : BT.709
Характеристики трансфера : BT.709
Коэффициенты матрицы : BT.709
Аудио #1
Идентификатор : 4
Формат : E-AC-3
Формат/Информация : Enhanced AC-3
Коммерческое название : Dolby Digital Plus
Идентификатор кодека : A_EAC3
Продолжительность : 54 м. 11 с.
Вид битрейта : Постоянный
Битрейт : 640 Кбит/сек
Каналы : 6 каналов
Channel layout : L R C LFE Ls Rs
Частота : 48,0 КГц
Частота кадров : 31,250 кадров/сек (1536 SPF)
Метод сжатия : С потерями
Размер потока : 248 Мбайт (10%)
Заголовок : DUB Rus SDI Media @DD5.1 E-AC3 , 640 Kbps, 48.0 KHz, 6 ch
Язык : Russian
Service kind : Complete Main
Default : Да
Forced : Нет
Аудио #2
Идентификатор : 5
Формат : E-AC-3 JOC
Формат/Информация : Enhanced AC-3 with Joint Object Coding
Коммерческое название : Dolby Digital Plus with Dolby Atmos
Идентификатор кодека : A_EAC3
Продолжительность : 54 м. 10 с.
Вид битрейта : Постоянный
Битрейт : 768 Кбит/сек
Каналы : 6 каналов
Channel layout : L R C LFE Ls Rs
Частота : 48,0 КГц
Частота кадров : 31,250 кадров/сек (1536 SPF)
Метод сжатия : С потерями
Размер потока : 298 Мбайт (12%)
Заголовок : Original@DD5.1 E-AC3 ,768 Kbps, 48.0 KHz, 6 ch
Язык : English
Service kind : Complete Main
Default : Нет
Forced : Нет
Complexity index : 16
Number of dynamic objects : 15
Bed channel count : 1 канал
Bed channel configuration : LFE
Аудио #3
Идентификатор : 7
Формат : AC-3
Формат/Информация : Audio Coding 3
Коммерческое название : Dolby Digital
Идентификатор кодека : A_AC3
Продолжительность : 52 м. 46 с.
Вид битрейта : Постоянный
Битрейт : 640 Кбит/сек
Каналы : 6 каналов
Channel layout : L R C LFE Ls Rs
Частота : 48,0 КГц
Частота кадров : 31,250 кадров/сек (1536 SPF)
Метод сжатия : С потерями
Размер потока : 242 Мбайт (10%)
Заголовок : 1 MVO LostFilm @DD5.1 AC3, 640 Kbps, 48.0 KHz, 6 ch
Язык : Russian
Service kind : Complete Main
Default : Нет
Forced : Нет
Аудио #4
Идентификатор : 8
Формат : AC-3
Формат/Информация : Audio Coding 3
Коммерческое название : Dolby Digital
Идентификатор кодека : A_AC3
Продолжительность : 52 м. 46 с.
Вид битрейта : Постоянный
Битрейт : 384 Кбит/сек
Каналы : 6 каналов
Channel layout : L R C LFE Ls Rs
Частота : 48,0 КГц
Частота кадров : 31,250 кадров/сек (1536 SPF)
Метод сжатия : С потерями
Размер потока : 145 Мбайт (6%)
Заголовок : MVO NewStudio @DD5.1 AC3, 384 Kbps, 48.0 KHz, 6 ch
Язык : Russian
Service kind : Complete Main
Default : Нет
Forced : Нет
Аудио #5
Идентификатор : 9
Формат : AC-3
Формат/Информация : Audio Coding 3
Коммерческое название : Dolby Digital
Идентификатор кодека : A_AC3
Продолжительность : 54 м. 10 с.
Вид битрейта : Постоянный
Битрейт : 384 Кбит/сек
Каналы : 6 каналов
Channel layout : L R C LFE Ls Rs
Частота : 48,0 КГц
Частота кадров : 31,250 кадров/сек (1536 SPF)
Метод сжатия : С потерями
Размер потока : 149 Мбайт (6%)
Заголовок : MVO Jaskier @DD5.1 AC3, 384 Kbps, 48.0 KHz, 6 ch
Язык : Russian
Service kind : Complete Main
Default : Нет
Forced : Нет
Текст #1
Идентификатор : 2
Формат : UTF-8
Идентификатор кодека : S_TEXT/UTF8
Идентификатор кодека/Информация : UTF-8 Plain Text
Продолжительность : 52 м. 31 с.
Битрейт : 0 бит/сек
Count of elements : 4
Размер потока : 206 байт (0%)
Заголовок : Большой хороший дом-Russian-Forced
Язык : Russian
Default : Да
Forced : Нет
Текст #2
Идентификатор : 3
Формат : UTF-8
Идентификатор кодека : S_TEXT/UTF8
Идентификатор кодека/Информация : UTF-8 Plain Text
Продолжительность : 52 м. 31 с.
Битрейт : 88 бит/сек
Count of elements : 811
Размер потока : 34,1 Кбайт (0%)
Заголовок : Большой хороший дом-Russian
Язык : Russian
Default : Нет
Forced : Нет
Текст #3
Идентификатор : 6
Формат : UTF-8
Идентификатор кодека : S_TEXT/UTF8
Идентификатор кодека/Информация : UTF-8 Plain Text
Продолжительность : 51 м. 22 с.
Битрейт : 69 бит/сек
Count of elements : 911
Размер потока : 26,2 Кбайт (0%)
Заголовок : -The Great Good Place-Original - SDH
Язык : English
Default : Нет
Forced : Нет
Меню
00:00:00.000 : ru:Глава 01 / ru:Глава 01 / ru:Глава 01 / ru:Глава 01 / ru:Глава 01 / ru:Глава 01 / ru:Глава 01 / ru:Глава 01 / ru:Глава 01
--

Скриншоты

----
1 Сезон
--

Как закачать отдельный файл

1. Открыть торрент
2. Снять галки с тех файлов торрента, которые мы не хотим закачивать. Оставляем только на нужных нам файлах (файле).
3. Нажать О.К.
В клиенте utorrent
Инструкция
1) Открыть торрент

2) Снять галки с тех файлов торрента, которые мы не хотим закачивать:
* либо вручную, снимая с каждого файла галку( скрин №1)
* либо, нажав кнопку "Снять метки (Select None)", сняв сразу со всех файлов(скрин №2)
№1

№2

Оставляем только на нужных нам файлах (файле).

3)Нажать О.К
-- -- --Внимание!!! 06.11. 2020. РАЗДАЧА ОБНОВЛЕНА. ДОБАВЛЕНА - 6 -9- СЕРИЯ . ФИНАЛ СЕЗОНА . ОБНОВИТЕ ТОРЕНТ ФАЙЛ. ПРИЯТНОГО ПРОСМОТРА . Поблагодарить:
ЯД: 410017546713876
--Релиз от: Nikolai.Baranov & PIRATIYA -- -- -- --Время раздачи : 24/7---
Скачать

Скачать торрент! Призраки усадьбы Блай / The Haunting of Bly Manor (Сезон 1 , Серия 1 - 9 из 9 ) (Киран Фой, Лиам Гэвин) [2020,Ужасы, триллер, драма, детектив,WEB-DLRip - HEVC 10bit - 1080p] [DUB SDI Media +LostFilm +NewStudio+Jaskier+ Eng]+[Subs Rus , ENG]

Как скачивать? · Что такое торрент? · Рейтинг и ограничения

Сайт не распространяет и не хранит электронные версии произведений, а лишь предоставляет доступ к создаваемому пользователями каталогу ссылок на торрент-файлы, которые содержат только списки хеш-сумм

 
Показать сообщения:    
Ответить на тему

Текущее время: Сегодня 22:14

Часовой пояс: GMT + 4



Вы не можете начинать темы
Вы не можете отвечать на сообщения
Вы не можете редактировать свои сообщения
Вы не можете удалять свои сообщения
Вы не можете голосовать в опросах
Вы не можете прикреплять файлы к сообщениям
Вы не можете скачивать файлы