Игра на выживание / Game of survival (Сезон 1 , Серия 1-12 из 12)) (Карен Оганесян) [2020, Приключения, триллер, драма , WEB-DLRip - HEVC - 1080p]

Ответить на тему
 
Автор Сообщение

Nikolai.Baranov ®

Пол:

Стаж: 3 года 4 месяца

Сообщений: 203

Откуда: Красногорск

Пост Пост: #1 от 08-Сен-2020 12:02

[Цитировать]

---- -- Игра на выживание / Game of survival - (Сезон 1 , Серия 1-12 из 12) - Полный Комплект --Год выпуска: 2020
Выпущено: Россия , Амедиа Продакшн, KarGo Films по заказу телеканала ТНТ
Жанр: Приключения, триллер, драма
Продолжительность:00:51:00
Сезон:1
Серия:1-12
Количество серий в сезоне:12--Озвучка #1: Русский --Релиз Без Рекламы - Ненормативная лексика -- --Режиссеры:
Карен Оганесян--В ролях: Александра Бортич, Алексей Чадов, Игорь Верник, Линда Лапиньш, Владимир Верёвочкин, Беник Аракелян, Анастасия Тодореску, Валерий Скорокосов, Юлия Волкова, Мария Кулик, Михаил Кремер, Илья Хвостиков, Дмитрий Кривошеев, Кристина Поли, Ульяна Лукина, Ирина Воронова, Дэвид Пилия, Дарья Макарова, Юрий Архангельский, Сергей Жарков, Андрей Филиппак, Никита Кологривый, Александр Марушев, Сергей Дьяков, Глеб Бочков, Андрей Быков, Алдар Когаев, Эрдэм Шагдуров-- Чем может обернуться обычное телевизионное реалити-шоу для его участников? 16 человек отправляются в дикую сибирскую тайгу, чтобы побороться за один миллион евро. Правила просты: никакой еды, личных вещей, электричества, связи и цивилизации на сотни километров вокруг. Победит тот, кто дойдет до конца. Но ТВ-проект превращается в смертельно опасную игру, где главным призом становится жизнь.-- --Качество : -WEB-DLRip - HEVC - 1080p.
Формат: MKV
Видео кодек: H265
Видео: 3068 Кбит/сек,1904х800(2.40.1),в 25.000 кадр/сек, HEVC (Main@L4@Main)--Аудио Кодек: AC3
Аудио #1: @DD5.1 AC3 , 384 Kbps, 48.0 KHz, 6 ch -Русский--

Доп. информация:

Звуковая дорожка сделана путем наложения чистого голоса озвучивателей на центральный канал оригинальной дорожки. Качество идентично звуковой дорожке.
--

MediaInfo

Общее
Уникальный идентификатор : 252269257241716833222043673210306529141 (0xBDC94AAA08BCA48F256600932DDD8775)
Полное имя : E:\Baranov\Игра на выживание - Game of survival\Game_of_survival_2020_S01_HEVC_DD5.1_N.B_HD_1080_Rus\Game_of_survival_2020_S01E01-E02_HEVC_DD5.1_N.B_HD_1080_Rus.mkv
Формат : Matroska
Версия формата : Version 4
Размер файла : 2,29 Гбайт
Продолжительность : 1 ч. 34 м.
Общий поток : 3 454 Кбит/сек
Название фильма : Game of survival 2020 S01E01-E02 @ Nikolai.Baranov & PIRATIYA
Дата кодирования : UTC 2020-09-07 16:44:16
Программа кодирования : mkvmerge v50.0.0 ('Awakenings') 64-bit
Библиотека кодирования : libebml v1.4.0 + libmatroska v1.6.2
Видео
Идентификатор : 1
Формат : HEVC
Формат/Информация : High Efficiency Video Coding
Профиль формата : Main@L4@Main
Идентификатор кодека : V_MPEGH/ISO/HEVC
Продолжительность : 1 ч. 34 м.
Битрейт : 3 068 Кбит/сек
Ширина : 1 904 пикселя
Высота : 800 пикселей
Соотношение сторон : 2,40:1
Режим частоты кадров : Постоянный
Частота кадров : 25,000 кадров/сек
Цветовое пространство : YUV
Субдискретизация насыщенности : 4:2:0
Битовая глубина : 8 бит
Бит/(Пиксели*Кадры) : 0.081
Размер потока : 2,03 Гбайт (89%)
Заголовок : Game_of_survival_2020_S01E01-E02_HEVC_DD5.1_N.B_HD_1080_Rus
Язык : Russian
Default : Да
Forced : Нет
Цветовой диапазон : Full
Основные цвета : BT.709
Характеристики трансфера : BT.709
Коэффициенты матрицы : BT.709
Аудио
Идентификатор : 2
Формат : AC-3
Формат/Информация : Audio Coding 3
Коммерческое название : Dolby Digital
Идентификатор кодека : A_AC3
Продолжительность : 1 ч. 34 м.
Вид битрейта : Постоянный
Битрейт : 384 Кбит/сек
Каналы : 6 каналов
Channel layout : L R C LFE Ls Rs
Частота : 48,0 КГц
Частота кадров : 31,250 кадров/сек (1536 SPF)
Метод сжатия : С потерями
Размер потока : 261 Мбайт (11%)
Заголовок : Russian @DD5.1 AC3, 384 Kbps, 48.0 KHz, 6 ch
Язык : Russian
Service kind : Complete Main
Default : Да
Forced : Нет
Меню
00:00:00.000 : ru:Глава 01 / ru:Глава 01
--

Скриншоты

---- --

Как закачать отдельный файл

1. Открыть торрент
2. Снять галки с тех файлов торрента, которые мы не хотим закачивать. Оставляем только на нужных нам файлах (файле).
3. Нажать О.К.
В клиенте utorrent
Инструкция
1) Открыть торрент

2) Снять галки с тех файлов торрента, которые мы не хотим закачивать:
* либо вручную, снимая с каждого файла галку( скрин №1)
* либо, нажав кнопку "Снять метки (Select None)", сняв сразу со всех файлов(скрин №2)
№1

№2

Оставляем только на нужных нам файлах (файле).

3)Нажать О.К
-- -- --Внимание!!! 18.09. 2020. РАЗДАЧА ОБНОВЛЕНА. ДОБАВЛЕНА - 11 -12 - СЕРИЯ ФИНАЛ СЕЗОНА . ОБНОВИТЕ ТОРЕНТ ФАЙЛ. ПРИЯТНОГО ПРОСМОТРА . Поблагодарить:
ЯД: 410017546713876
--Релиз от: Nikolai.Baranov & PIRATIYA -- -- -- --Время раздачи : 24/7---
Скачать

Скачать торрент! Игра на выживание / Game of survival (Сезон 1 , Серия 1-12 из 12)) (Карен Оганесян) [2020, Приключения, триллер, драма , WEB-DLRip - HEVC - 1080p]

Как скачивать? · Что такое торрент? · Рейтинг и ограничения

Сайт не распространяет и не хранит электронные версии произведений, а лишь предоставляет доступ к создаваемому пользователями каталогу ссылок на торрент-файлы, которые содержат только списки хеш-сумм

загрузка...

_________________

Легко быть оптимистом, когда судьба не валит с ног тяжелыми ударами, а лишь иногда легонько шлепает по заднице.
[Профиль] [ЛС]
Показать сообщения:    
Ответить на тему

Текущее время: Сегодня 23:41

Часовой пояс: GMT + 4



Вы не можете начинать темы
Вы не можете отвечать на сообщения
Вы не можете редактировать свои сообщения
Вы не можете удалять свои сообщения
Вы не можете голосовать в опросах
Вы не можете прикреплять файлы к сообщениям
Вы не можете скачивать файлы