Крепкий Харт / Die Hart (Сезон 1 , Серия 1-10 из10) ( Эрик Аппель) [2020,Боевик, триллер, комедия,WEB-DLRip 1080p] [LostFilm+Eng]+[Subs ENG]

Ответить на тему
 
Автор Сообщение

Nikolai.Baranov ®

Пост Пост: #1 от 02-Сен-2020 13:57

[Цитировать]

---- Крепкий Харт / Die Hart (Сезон 1 , Серия 1-10 из10) - Полный Комплект -- --Год выпуска: 2020
Выпущено: США , DiGa Studios, Laugh Out Loud
Жанр:Боевик, триллер, комедия
Продолжительность: 00:08:00
Сезон:1
Серия:1-10
Количество серий в сезоне: 10--Озвучка #1: Профессиональный многоголосый - LostFilm - Русский
Озвучка #2: Профессиональный многоголосый -Английский - Оригинал
Субтитры: English (SDH)
--Релиз Без Рекламы --IMDb 6.3 -Режиссеры:
Эрик Аппель--В ролях: Джон Траволта, Кевин Харт, Натали Эммануэль, Жан Рено, Джош Хартнетт, Кеннет Трухильо, Эрик Майнаде, Джош Лэмбой, Брэндон Куинн, Милана Вайнтруб--
Актёр устал сниматься в комедиях и хочет стать звездой боевиков. Ему подворачивается шанс получить роль мечты, но сперва он должен пережить обучение в школе для экшен-героев, которой руководит безумный преподаватель. Теперь ему предстоит пройти через серию немыслимых экшен-сцен в компании других студентов.-- --Качество :WEB-DLRip 1080p
Формат: MKV
Видео кодек: H264
Видео: 14086 Кбит/сек,1920х1080(16.9),в 23.976кадр/сек,AVC (High@L4)(CABAC/4 Ref Frames)--Аудио Кодек:AC3
Аудио #1: MVO LostFilm @ DD5.1 AC3, 384 Kbps, 48.0 KHz, 6 ch - LostFilm - Русский
Аудио #2: Original@DD5.1 AC3 , 384 Kbps, 48.0 KHz, 6 ch - English - Оригинал--

Доп. информация:

Звуковая дорожка сделана путем наложения чистого голоса озвучивателей на центральный канал оригинальной дорожки. Качество идентично звуковой дорожке.
--

Список эпизодов сезона


1 сезон 1 серия - Рекрут - The Recruit
1 сезон 2 серия - Гнев - Man on Fire
1 сезон 3 серия - Чудо-женщина - Wonder Woman
1 сезон 4 серия - Секс, ложь и видео - Sex, Lies and Videotape
1 сезон 5 серия - Шоу Трумана - The Truman Show
1 сезон 6 серия - Крестный отец - The Godfather
1 сезон 7 серия - Большой побег - The Great Escape
1 сезон 8 серия - Плохие парни - Bad Boys
1 сезон 9 серия - Крепкий орешек 4.0 - Live Free or Die Hard
1 сезон 10 серия - Правдивая ложь - True Lies
--

MediaInfo 1Сезон

Общее
Уникальный идентификатор : 124528411763510183486393548320135934950 (0x5DAF4CBA126C02C78ECD7A0191DF73E6)
Полное имя : D:\PIRATIYA\Крепкий Харт - Die Hart\Die_Hart_S01_2020_Н264_DD5.1_N.B_HD_1080_LostFilm_Rus_Eng\Die_Hart_S01_2020_Н264_DD5.1_N.B_HD_1080_LostFilm_Rus_Eng.mkv
Формат : Matroska
Версия формата : Version 4
Размер файла : 2,74 Гбайт
Продолжительность : 1 ч. 20 м.
Общий поток : 4 856 Кбит/сек
Название фильма : Die Hart S01 2020 @ Nikolai.Baranov & PIRATIYA
Дата кодирования : UTC 2020-09-02 08:18:23
Программа кодирования : mkvmerge v49.0.0 ('Sick Of Losing Soulmates') 64-bit
Библиотека кодирования : libebml v1.4.0 + libmatroska v1.6.1
Видео
Идентификатор : 1
Формат : AVC
Формат/Информация : Advanced Video Codec
Профиль формата : High@L4
Настройки формата : CABAC / 4 Ref Frames
Параметр CABAC формата : Да
Параметр RefFrames формата : 4 кадра
Идентификатор кодека : V_MPEG4/ISO/AVC
Продолжительность : 1 ч. 20 м.
Битрейт : 4 086 Кбит/сек
Ширина : 1 920 пикселей
Высота : 1 080 пикселей
Соотношение сторон : 16:9
Режим частоты кадров : Постоянный
Частота кадров : 23,976 (23976/1000) кадра/сек
Цветовое пространство : YUV
Субдискретизация насыщенности : 4:2:0
Битовая глубина : 8 бит
Тип развёртки : Прогрессивная
Бит/(Пиксели*Кадры) : 0.082
Размер потока : 2,30 Гбайт (84%)
Заголовок : Die_Hart_S01_2020_Н264_DD5.1_N.B_HD_1080_LostFilm_Rus_Eng
Язык : Russian
Default : Нет
Forced : Нет
Аудио #1
Идентификатор : 2
Формат : AC-3
Формат/Информация : Audio Coding 3
Коммерческое название : Dolby Digital
Идентификатор кодека : A_AC3
Продолжительность : 1 ч. 20 м.
Вид битрейта : Постоянный
Битрейт : 384 Кбит/сек
Каналы : 6 каналов
Channel layout : L R C LFE Ls Rs
Частота : 48,0 КГц
Частота кадров : 31,250 кадров/сек (1536 SPF)
Метод сжатия : С потерями
Размер потока : 222 Мбайт (8%)
Заголовок : MVO LostFilm @DD5.1 AC3, 384 Kbps, 48.0 KHz, 6 ch
Язык : Russian
Service kind : Complete Main
Default : Да
Forced : Нет
Аудио #2
Идентификатор : 3
Формат : AC-3
Формат/Информация : Audio Coding 3
Коммерческое название : Dolby Digital
Идентификатор кодека : A_AC3
Продолжительность : 1 ч. 20 м.
Вид битрейта : Постоянный
Битрейт : 384 Кбит/сек
Каналы : 6 каналов
Channel layout : L R C LFE Ls Rs
Частота : 48,0 КГц
Частота кадров : 31,250 кадров/сек (1536 SPF)
Метод сжатия : С потерями
Размер потока : 222 Мбайт (8%)
Заголовок : Original @DD5.1 AC3, 384 Kbps, 48.0 KHz, 6 ch
Язык : English
Service kind : Complete Main
Default : Нет
Forced : Нет
Текст #1
Идентификатор : 4
Формат : UTF-8
Идентификатор кодека : S_TEXT/UTF8
Идентификатор кодека/Информация : UTF-8 Plain Text
Продолжительность : 1 ч. 20 м.
Битрейт : 100 бит/сек
Count of elements : 1928
Размер потока : 59,3 Кбайт (0%)
Заголовок : Original - SDH
Язык : English
Default : Да
Forced : Нет
Текст #2
Идентификатор : 5
Формат : UTF-8
Идентификатор кодека : S_TEXT/UTF8
Идентификатор кодека/Информация : UTF-8 Plain Text
Продолжительность : 1 ч. 20 м.
Битрейт : 91 бит/сек
Count of elements : 1728
Размер потока : 53,9 Кбайт (0%)
Заголовок : Original
Язык : English
Default : Нет
Forced : Нет
Меню
00:00:00.000 : ru:Глава 01 / ru:Глава 01 / ru:Глава 01 / ru:Глава 01 / ru:Глава 01
--

Скриншоты

--
1Сезон
--

Как закачать отдельный файл

1. Открыть торрент
2. Снять галки с тех файлов торрента, которые мы не хотим закачивать. Оставляем только на нужных нам файлах (файле).
3. Нажать О.К.
В клиенте utorrent
Инструкция
1) Открыть торрент

2) Снять галки с тех файлов торрента, которые мы не хотим закачивать:
* либо вручную, снимая с каждого файла галку( скрин №1)
* либо, нажав кнопку "Снять метки (Select None)", сняв сразу со всех файлов(скрин №2)
№1

№2

Оставляем только на нужных нам файлах (файле).

3)Нажать О.К
-- -- --Релиз от: Nikolai.Baranov & PIRATIYA . Поблагодарить:
ЯД: 410017546713876
-- -- -- --Время раздачи : 24/7--
Скачать

Скачать торрент! Крепкий Харт / Die Hart (Сезон 1 , Серия 1-10 из10) ( Эрик Аппель) [2020,Боевик, триллер, комедия,WEB-DLRip 1080p] [LostFilm+Eng]+[Subs ENG]

Как скачивать? · Что такое торрент? · Рейтинг и ограничения

Сайт не распространяет и не хранит электронные версии произведений, а лишь предоставляет доступ к создаваемому пользователями каталогу ссылок на торрент-файлы, которые содержат только списки хеш-сумм

 
Показать сообщения:    
Ответить на тему

Текущее время: Сегодня 13:08

Часовой пояс: GMT + 4



Вы не можете начинать темы
Вы не можете отвечать на сообщения
Вы не можете редактировать свои сообщения
Вы не можете удалять свои сообщения
Вы не можете голосовать в опросах
Вы не можете прикреплять файлы к сообщениям
Вы не можете скачивать файлы