Монахиня-воин / Warrior Nun (Сезон 1 , Серия 1-10 из 10) (Джет Уилкинсон, Саймон Бэрри) [2020,Фэнтези, боевик, драма,WEB-DLRip - HEVC 10bit - 1080p] [LostFilm+NewStudio+Eng]+[Subs Rus , ENG]

Ответить на тему
 
Автор Сообщение

Nikolai.Baranov ®

Пост Пост: #1 от 14-Июл-2020 14:58

[Цитировать]

---- Монахиня-воин / Warrior Nun (Сезон 1 , Серия 1-10- из 10) - Полный Комплект -- --Год выпуска: 2020
Выпущено: США , A Film Location Company, Reality Distortion Field
Жанр: Фэнтези, боевик, драма
Продолжительность: 00:43:000
Сезон:1
Серия:1-10
Количество серий в сезоне: 10--Озвучка #1: Профессиональный многоголосый - LostFilm - Русский
Озвучка 2: Профессиональный многоголосый - NewStudio - Русский
Озвучка #3: Профессиональный многоголосый -Английский - Оригинал--Субтитры (UTF-8): вшитые
#1 - Русские (Forced) (включены по умолчанию)
#2 - Русские
#3 - English (Forced)
#4- English (SDH)
#5 - English (Original)--Внешние:
#1 - English (Forced)
#2 - English (SDH)
#3 - English (Original)
#4 - Russian (Forced)
#5 - Russian
--Релиз Без Рекламы - Ненормативная лексика --IMDb 6.9 --Режиссеры:
Джет Уилкинсон, Саймон Бэрри, Матиас Хендл--В ролях: Тоя Тернер, Альба Баптиста, Лорена Андреа, Кристина Тонтери-Янг, Текла Рютен, Оливия Делькан, Жоаким ди Алмейда, Сильвия Де Фанти, Дмитрий Аболд, Гийомар Алонсо--
Обычная девушка Эйва неожиданно для себя оказывается втянута в древнюю войну таинственного ордена с силами зла. Проснувшись в морге, она обнаруживает у себя невероятные способности. Поиск ответов приводит Эйву к ордену Крестообразного Меча — секретному обществу монахинь-воинов, поклявшихся защищать мир ото зла. Теперь она должна найти баланс между новыми обязанностями спасительницы человечества и жизнью обычного подростка.-- --Качество : WEB-DLRip - HEVC 10bit - 1080p
Формат: MKV
Видео кодек: H265
Видео: 2325 Кбит/сек,1920х1080 , (16.9),в 23.976кадр/сек, HEVC (Main10@L4@Main)--Аудио Кодек:AC3
Аудио #1: MVO LostFilm @ DD5.1 AC3, 640 Kbps, 48.0 KHz, 6 ch - LostFilm - Русский
Аудио #2: MVO NewStudio @DD5.1 AC3, 384 Kbps, 48.0 KHz, 6 ch - NewStudio - Русский
Аудио #3: Original@DD5.1 E-AC3 ,768 Kbps, 48.0 KHz, 6 ch - English - Оригинал--

Доп. информация:

Звуковая дорожка сделана путем наложения чистого голоса озвучивателей на центральный канал оригинальной дорожки. Качество идентично звуковой дорожке.
--

Список эпизодов сезона


1 сезон 1 серия - Псалом 46, стих 5 - Psalm 46:5
1 сезон 2 серия - Притчи 31:25 - Proverbs 31:25
1 сезон 3 серия - Послание к Ефесянам, глава 6, стих 11 - Ephesians 6:11
1 сезон 4 серия - Книга Премудрости Иисуса, сына Сирахова, глава 26, стих 9-10 - Ecclesiasticus 26:9-10
1 сезон 5 серия - Евангелие от Матфея, глава 7, стих 13 - Matthew 7:13
1 сезон 6 серия - Книга пророка Исаии, глава 30, стих 20 - Isaiah 30:20-21
1 сезон 7 серия - Послание к Ефесянам, глава 4, стих 22-24 - Ephesians 4:22-24
1 сезон 8 серия - Притчи Соломона, глава 14, стих 1 - Proverbs 14:1
1 сезон 9 серия - Второе Послание к Коринфянам, глава 10, стих 4 - 2 Corinthians 10:4
1 сезон 10 серия - Откровение Иоанна Богослова, глава 2, стих 10 - Revelation 2:10
--

MediaInfo 1Сезон

Общее
Уникальный идентификатор : 49337230265939220088752386588053806125 (0x251E01420F19616CCC6F9CC3A1971C2D)
Полное имя : F:\Nikolai.Baranov & PIRATIYA\Монахиня-воин - Warrior Nun\_Warrior_Nun_2020_S01_HEVC- 10Bit_Н265_DD5.1_N.B_HD_1080_2хRus_Eng\Warrior_Nun_2020_S01E01_HEVC_Н265_DD5.1_N.B_HD_1080_2хRus_Eng.mkv
Формат : Matroska
Версия формата : Version 4
Размер файла : 1,47 Гбайт
Продолжительность : 50 м. 57 с.
Общий поток : 4 120 Кбит/сек
Название фильма : Warrior Nun 2020 S01E01 @ Nikolai.Baranov & PIRATIYA
Дата кодирования : UTC 2020-07-13 15:41:48
Программа кодирования : mkvmerge v48.0.0 ('Fortress Around Your Heart') 64-bit
Библиотека кодирования : libebml v1.4.0 + libmatroska v1.6.0 / Lavf58.20.100
Видео
Идентификатор : 1
Формат : HEVC
Формат/Информация : High Efficiency Video Coding
Профиль формата : Main 10@L4@Main
Идентификатор кодека : V_MPEGH/ISO/HEVC
Продолжительность : 50 м. 57 с.
Битрейт : 2 325 Кбит/сек
Ширина : 1 920 пикселей
Высота : 1 080 пикселей
Соотношение сторон : 16:9
Режим частоты кадров : Постоянный
Частота кадров : 23,976 (24000/1001) кадра/сек
Цветовое пространство : YUV
Субдискретизация насыщенности : 4:2:0
Битовая глубина : 10 бит
Бит/(Пиксели*Кадры) : 0.047
Размер потока : 847 Мбайт (56%)
Заголовок : Warrior_Nun_2020_S01E01_HEVC_Н265_DD5.1_N.B_HD_1080_2хRus_Eng
Библиотека кодирования : x265 3.2+35-acc5d16999e2:[Windows][GCC 9.2.1][64 bit] 10bit
Настройки программы : cpuid=1111039 / frame-threads=4 / numa-pools=24 / wpp / no-pmode / no-pme / no-psnr / no-ssim / log-level=2 / input-csp=1 / input-res=1920x1080 / interlace=0 / total-frames=0 / level-idc=0 / high-tier=1 / uhd-bd=0 / ref=4 / no-allow-non-conformance / no-repeat-headers / annexb / no-aud / no-hrd / info / hash=0 / no-temporal-layers / open-gop / min-keyint=23 / keyint=250 / gop-lookahead=0 / bframes=8 / b-adapt=2 / b-pyramid / bframe-bias=0 / rc-lookahead=80 / lookahead-slices=4 / scenecut=40 / hist-scenecut=0 / radl=0 / no-splice / no-intra-refresh / ctu=64 / min-cu-size=8 / no-rect / no-amp / max-tu-size=32 / tu-inter-depth=1 / tu-intra-depth=1 / limit-tu=0 / rdoq-level=2 / dynamic-rd=0.00 / no-ssim-rd / signhide / no-tskip / nr-intra=0 / nr-inter=0 / no-constrained-intra / no-strong-intra-smoothing / max-merge=3 / limit-refs=3 / limit-modes / me=3 / subme=5 / merange=57 / temporal-mvp / no-frame-dup / no-hme / weightp / no-weightb / no-analyze-src-pics / deblock=0:0 / sao / no-sao-non-deblock / rd=4 / selective-sao=4 / no-early-skip / rskip / no-fast-intra / no-tskip-fast / no-cu-lossless / no-b-intra / no-splitrd-skip / rdpenalty=0 / psy-rd=1.30 / psy-rdoq=2.00 / no-rd-refine / no-lossless / cbqpoffs=0 / crqpoffs=0 / rc=crf / crf=19.5 / qcomp=0.60 / qpstep=4 / stats-write=0 / stats-read=0 / ipratio=1.40 / pbratio=1.30 / aq-mode=4 / aq-strength=1.10 / cutree / zone-count=0 / no-strict-cbr / qg-size=32 / no-rc-grain / qpmax=69 / qpmin=0 / no-const-vbv / sar=1 / overscan=0 / videoformat=5 / range=0 / colorprim=2 / transfer=2 / colormatrix=2 / chromaloc=0 / display-window=0 / cll=0,0 / min-luma=0 / max-luma=1023 / log2-max-poc-lsb=8 / vui-timing-info / vui-hrd-info / slices=1 / no-opt-qp-pps / no-opt-ref-list-length-pps / no-multi-pass-opt-rps / scenecut-bias=0.05 / hist-threshold=0.01 / no-opt-cu-delta-qp / no-aq-motion / no-hdr10 / no-hdr10-opt / no-dhdr10-opt / no-idr-recovery-sei / analysis-reuse-level=0 / analysis-save-reuse-level=0 / analysis-load-reuse-level=0 / scale-factor=0 / refine-intra=0 / refine-inter=0 / refine-mv=1 / refine-ctu-distortion=0 / no-limit-sao / ctu-info=0 / no-lowpass-dct / refine-analysis-type=0 / copy-pic=1 / max-ausize-factor=1.0 / no-dynamic-refine / no-single-sei / no-hevc-aq / no-svt / no-field / qp-adaptation-range=1.00 / no-scenecut-aware-qpconformance-window-offsets / right=0 / bottom=0
Язык : Russian
Default : Да
Forced : Нет
Цветовой диапазон : Limited
Аудио #1
Идентификатор : 3
Формат : AC-3
Формат/Информация : Audio Coding 3
Коммерческое название : Dolby Digital
Идентификатор кодека : A_AC3
Продолжительность : 50 м. 57 с.
Вид битрейта : Постоянный
Битрейт : 640 Кбит/сек
Каналы : 6 каналов
Channel layout : L R C LFE Ls Rs
Частота : 44,1 КГц
Частота кадров : 28,711 кадров/сек (1536 SPF)
Метод сжатия : С потерями
Задержка видео : -83 мс.
Размер потока : 233 Мбайт (16%)
Заголовок : MVO LostFilm @DD5.1 AC3, 640 Kbps, 48.0 KHz, 6 ch
Язык : Russian
Service kind : Complete Main
Default : Да
Forced : Нет
Аудио #2
Идентификатор : 4
Формат : AC-3
Формат/Информация : Audio Coding 3
Коммерческое название : Dolby Digital
Идентификатор кодека : A_AC3
Продолжительность : 50 м. 57 с.
Вид битрейта : Постоянный
Битрейт : 384 Кбит/сек
Каналы : 6 каналов
Channel layout : L R C LFE Ls Rs
Частота : 48,0 КГц
Частота кадров : 31,250 кадров/сек (1536 SPF)
Метод сжатия : С потерями
Задержка видео : -83 мс.
Размер потока : 140 Мбайт (9%)
Заголовок : MVO NewStudio @DD5.1 AC3, 384 Kbps, 48.0 KHz, 6 ch
Язык : Russian
Service kind : Complete Main
Default : Нет
Forced : Нет
Аудио #3
Идентификатор : 5
Формат : E-AC-3 JOC
Формат/Информация : Enhanced AC-3 with Joint Object Coding
Коммерческое название : Dolby Digital Plus with Dolby Atmos
Идентификатор кодека : A_EAC3
Продолжительность : 50 м. 57 с.
Вид битрейта : Постоянный
Битрейт : 768 Кбит/сек
Каналы : 6 каналов
Channel layout : L R C LFE Ls Rs
Частота : 48,0 КГц
Частота кадров : 31,250 кадров/сек (1536 SPF)
Метод сжатия : С потерями
Задержка видео : -83 мс.
Размер потока : 280 Мбайт (19%)
Заголовок : Original@DD5.1 E-AC3 ,768 Kbps, 48.0 KHz, 6 ch
Язык : English
Service kind : Complete Main
Default : Нет
Forced : Нет
Complexity index : 16
Number of dynamic objects : 15
Bed channel count : 1 канал
Bed channel configuration : LFE
Текст #1
Идентификатор : 2
Формат : UTF-8
Идентификатор кодека : S_TEXT/UTF8
Идентификатор кодека/Информация : UTF-8 Plain Text
Продолжительность : 50 м. 14 с.
Битрейт : 64 бит/сек
Count of elements : 528
Размер потока : 23,8 Кбайт (0%)
Заголовок : Псалом 46, стих 5-Russian
Язык : Russian
Default : Да
Forced : Нет
Текст #2
Идентификатор : 6
Формат : UTF-8
Идентификатор кодека : S_TEXT/UTF8
Идентификатор кодека/Информация : UTF-8 Plain Text
Продолжительность : 1 м. 57 с.
Битрейт : 52 бит/сек
Count of elements : 19
Размер потока : 769 байт (0%)
Заголовок : -Psalm 46,5-Eng-Forced
Язык : English
Default : Нет
Forced : Нет
Текст #3
Идентификатор : 7
Формат : UTF-8
Идентификатор кодека : S_TEXT/UTF8
Идентификатор кодека/Информация : UTF-8 Plain Text
Продолжительность : 48 м. 23 с.
Битрейт : 60 бит/сек
Count of elements : 762
Размер потока : 21,4 Кбайт (0%)
Заголовок : Psalm 46,5-Original - SDH
Язык : English
Default : Нет
Forced : Нет
Текст #4
Идентификатор : 8
Формат : UTF-8
Идентификатор кодека : S_TEXT/UTF8
Идентификатор кодека/Информация : UTF-8 Plain Text
Продолжительность : 46 м. 38 с.
Битрейт : 50 бит/сек
Count of elements : 585
Размер потока : 17,3 Кбайт (0%)
Заголовок : Psalm 46,5-Original
Язык : English
Default : Нет
Forced : Нет
Меню
00:00:00.083 : ru:Глава 01 / ru:Глава 01 / ru:Глава 01 / ru:Глава 01 / ru:Глава 01 / ru:Глава 01 / ru:Глава 01 / ru:Глава 01
--

Скриншоты

--
1Сезон
--

Как закачать отдельный файл

1. Открыть торрент
2. Снять галки с тех файлов торрента, которые мы не хотим закачивать. Оставляем только на нужных нам файлах (файле).
3. Нажать О.К.
В клиенте utorrent
Инструкция
1) Открыть торрент

2) Снять галки с тех файлов торрента, которые мы не хотим закачивать:
* либо вручную, снимая с каждого файла галку( скрин №1)
* либо, нажав кнопку "Снять метки (Select None)", сняв сразу со всех файлов(скрин №2)
№1

№2

Оставляем только на нужных нам файлах (файле).

3)Нажать О.К
-- -- --Внимание!!! 25.07. 2020. РАЗДАЧА ОБНОВЛЕНА. ДОБАВЛЕНА -10- СЕРИЯ . Финал Сезона . ОБНОВИТЕ ТОРЕНТ ФАЙЛ. ПРИЯТНОГО ПРОСМОТРА . Поблагодарить:
ЯД: 410017546713876
--Релиз от: Nikolai.Baranov & PIRATIYA -- -- -- --Время раздачи : 24/7---
Скачать

Скачать торрент! Монахиня-воин / Warrior Nun (Сезон 1 , Серия 1-10 из 10) (Джет Уилкинсон, Саймон Бэрри) [2020,Фэнтези, боевик, драма,WEB-DLRip - HEVC 10bit - 1080p] [LostFilm+NewStudio+Eng]+[Subs Rus , ENG]

Как скачивать? · Что такое торрент? · Рейтинг и ограничения

Сайт не распространяет и не хранит электронные версии произведений, а лишь предоставляет доступ к создаваемому пользователями каталогу ссылок на торрент-файлы, которые содержат только списки хеш-сумм

 
Показать сообщения:    
Ответить на тему

Текущее время: Сегодня 13:29

Часовой пояс: GMT + 4



Вы не можете начинать темы
Вы не можете отвечать на сообщения
Вы не можете редактировать свои сообщения
Вы не можете удалять свои сообщения
Вы не можете голосовать в опросах
Вы не можете прикреплять файлы к сообщениям
Вы не можете скачивать файлы