Тайлер Рейк: Операция по спасению (Эвакуация) / Extraction(Сэм Харгрейв) [2020,Боевик,WEB-DL,HEVC,HDR 1080р] [Dub Netflix+ENG]+[Subs Rus+ENG]

Ответить на тему
 
Автор Сообщение

Nikolai.Baranov ®

Пост Пост: #1 от 26-Апр-2020 15:15

[Цитировать]

--Тайлер Рейк: Операция по спасению (Эвакуация) / Extraction -- --Год выпуска: 2020
Выпущено: США , India Take One Productions, Russo Brothers, T.G.I.M Films, Thematic Entertainment
Жанр: Боевик
Продолжительность: 01:57:26--Озвучка #1:Дублированный - Netflix - Русский
Озвучка #2: Профессиональный многоголосый -Английский - Оригинал
Субтитры: Русские (полные, форсированные) ,English (полные, форсированные), English SDH
--Релиз Без Рекламы --MDB 6,9 --Режиссеры:
Сэм Харгрейв--В ролях: Крис Хемсворт, Голшифте Фарахани, Дэвид Харбор, Рудракш Джайсвал, Рандип Худа, Панкадж Трипати, Крис Джай Алекс, Прияншу Пайнюли, Шатаф Фигар, Патрик Ньюэлл-- Наёмнику Тайлеру Рэйку поручают освободить сына международного преступника. Мальчик — пешка в войне двух наркобаронов, и его держат в заложниках в городе Дакка, столице государства Бангладеш и одном из самых неприступных мест в мире.-- --Качество :WEB-DL - HEVC-HDR- 10 - 1080p
Формат: MKV
Видео кодек: H265
Видео: 4700 Кбит/сек,1920х1080(16.9),в 24.000кадр/сек, HEVC (Main10@L4@Main@Main) , HDR10--Аудио Кодек:Аудио Кодек:AC3
Аудио #1: Dub Netflix @DD5.1 E-AC3 , 640 Kbps, 48.0 KHz, 6 ch - Netflix- Русский
Аудио #2:Original@DD5.1 E-AC3 , 768 Kbps, 48.0 KHz, 6 ch - - English-

Доп. информация:

Звуковая дорожка сделана путем наложения чистого голоса озвучивателей на центральный канал оригинальной дорожки. Качество идентично звуковой дорожке.
--

MediaInfo

Общее
Уникальный идентификатор : 216742805017980222593066506751334189481 (0xA30F2555DDB2522F31C5671681D489A9)
Полное имя : F:\Nikolai.Baranov & PIRATIYA\Тайлер Рейк Операция по спасению - Extraction\Extraction_2020_HEVC_ HDR_10_Н265_DD5.1_N.B_ HD_1080_DUB_Rus_Eng\Extraction_2020_HEVC_DD5.1_N.B_HDR_1080_DUB_Rus_Eng.mkv
Формат : Matroska
Версия формата : Version 4
Размер файла : 4,97 Гбайт
Продолжительность : 1 ч. 57 м.
Общий поток : 6 052 Кбит/сек
Название фильма : Extraction 2020 @ Nikolai.Baranov & PIRATIYA
Дата кодирования : UTC 2020-04-26 08:49:23
Программа кодирования : mkvmerge v45.0.0 ('Heaven in Pennies') 64-bit
Библиотека кодирования : libebml v1.3.10 + libmatroska v1.5.2 / Lavf58.20.100
Видео
Идентификатор : 1
Формат : HEVC
Формат/Информация : High Efficiency Video Coding
Профиль формата : Main 10@L4@Main
HDR format : SMPTE ST 2086, HDR10 compatible
Идентификатор кодека : V_MPEGH/ISO/HEVC
Продолжительность : 1 ч. 56 м.
Битрейт : 4 700 Кбит/сек
Ширина : 1 920 пикселей
Высота : 1 080 пикселей
Соотношение сторон : 16:9
Режим частоты кадров : Постоянный
Частота кадров : 24,000 кадра/сек
Цветовое пространство : YUV
Субдискретизация насыщенности : 4:2:0 (Type 2)
Битовая глубина : 10 бит
Бит/(Пиксели*Кадры) : 0.094
Размер потока : 3,81 Гбайт (77%)
Заголовок : Extraction_2020_HEVC_DD5.1_N.B_HDR_1080_DUB_Rus_Eng
Язык : Russian
Default : Да
Forced : Нет
Цветовой диапазон : Limited
Основные цвета : BT.2020
Характеристики трансфера : PQ
Коэффициенты матрицы : BT.2020 non-constant
Mastering display color primaries : Display P3
Mastering display luminance : min: 0.0001 cd/m2, max: 1000 cd/m2
Maximum Content Light Level : 2873 cd/m2
Maximum Frame-Average Light Level : 482 cd/m2
Аудио #1
Идентификатор : 4
Формат : E-AC-3
Формат/Информация : Enhanced AC-3
Коммерческое название : Dolby Digital Plus
Идентификатор кодека : A_EAC3
Продолжительность : 1 ч. 57 м.
Вид битрейта : Постоянный
Битрейт : 640 Кбит/сек
Каналы : 6 каналов
Channel layout : L R C LFE Ls Rs
Частота : 48,0 КГц
Частота кадров : 31,250 кадров/сек (1536 SPF)
Метод сжатия : С потерями
Задержка видео : -83 мс.
Размер потока : 538 Мбайт (11%)
Заголовок : Dub Netflix @DD5.1 E-AC3 , 640 Kbps, 48.0 KHz, 6 ch
Язык : Russian
Service kind : Complete Main
Default : Нет
Forced : Нет
Аудио #2
Идентификатор : 5
Формат : E-AC-3 JOC
Формат/Информация : Enhanced AC-3 with Joint Object Coding
Коммерческое название : Dolby Digital Plus with Dolby Atmos
Идентификатор кодека : A_EAC3
Продолжительность : 1 ч. 57 м.
Вид битрейта : Постоянный
Битрейт : 768 Кбит/сек
Каналы : 6 каналов
Channel layout : L R C LFE Ls Rs
Частота : 48,0 КГц
Частота кадров : 31,250 кадров/сек (1536 SPF)
Метод сжатия : С потерями
Задержка видео : -83 мс.
Размер потока : 645 Мбайт (13%)
Заголовок : Original@DD5.1 E-AC3, 768 Kbps, 48.0 KHz, 6 ch
Язык : English
Service kind : Complete Main
Default : Нет
Forced : Нет
Complexity index : 16
Number of dynamic objects : 15
Bed channel count : 1 канал
Bed channel configuration : LFE
Текст #1
Идентификатор : 2
Формат : UTF-8
Идентификатор кодека : S_TEXT/UTF8
Идентификатор кодека/Информация : UTF-8 Plain Text
Продолжительность : 1 ч. 55 м.
Битрейт : 7 бит/сек
Count of elements : 178
Размер потока : 6,48 Кбайт (0%)
Заголовок : Russian-Forced
Язык : Russian
Default : Да
Forced : Нет
Текст #2
Идентификатор : 3
Формат : UTF-8
Идентификатор кодека : S_TEXT/UTF8
Идентификатор кодека/Информация : UTF-8 Plain Text
Продолжительность : 1 ч. 55 м.
Битрейт : 31 бит/сек
Count of elements : 675
Размер потока : 26,3 Кбайт (0%)
Заголовок : Russian
Язык : Russian
Default : Нет
Forced : Нет
Текст #3
Идентификатор : 6
Формат : UTF-8
Идентификатор кодека : S_TEXT/UTF8
Идентификатор кодека/Информация : UTF-8 Plain Text
Продолжительность : 1 ч. 22 м.
Битрейт : 6 бит/сек
Count of elements : 167
Размер потока : 3,83 Кбайт (0%)
Заголовок : Eng-Forced
Язык : English
Default : Нет
Forced : Нет
Текст #4
Идентификатор : 7
Формат : UTF-8
Идентификатор кодека : S_TEXT/UTF8
Идентификатор кодека/Информация : UTF-8 Plain Text
Продолжительность : 1 ч. 39 м.
Битрейт : 34 бит/сек
Count of elements : 925
Размер потока : 24,9 Кбайт (0%)
Заголовок : Original - SDH
Язык : English
Default : Нет
Forced : Нет
Текст #5
Идентификатор : 8
Формат : UTF-8
Идентификатор кодека : S_TEXT/UTF8
Идентификатор кодека/Информация : UTF-8 Plain Text
Продолжительность : 1 ч. 34 м.
Битрейт : 27 бит/сек
Count of elements : 717
Размер потока : 19,2 Кбайт (0%)
Заголовок : Original
Язык : English
Default : Нет
Forced : Нет
Меню
00:00:00.083 : ru:Глава 01 / ru:Глава 01 / ru:Глава 01 / ru:Глава 01 / ru:Глава 01 / ru:Глава 01 / ru:Глава 01 / ru:Глава 01
--

Скриншоты

-- -- -- --Релиз от: Nikolai.Baranov & PIRATIYA . Поблагодарить:
ЯД: 410017546713876
-- -- -- --Время раздачи : 24/7--
Скачать

Скачать торрент! Тайлер Рейк: Операция по спасению (Эвакуация) / Extraction(Сэм Харгрейв) [2020,Боевик,WEB-DL,HEVC,HDR 1080р] [Dub Netflix+ENG]+[Subs Rus+ENG]

Как скачивать? · Что такое торрент? · Рейтинг и ограничения

Сайт не распространяет и не хранит электронные версии произведений, а лишь предоставляет доступ к создаваемому пользователями каталогу ссылок на торрент-файлы, которые содержат только списки хеш-сумм

 
Показать сообщения:    
Ответить на тему

Текущее время: Сегодня 06:45

Часовой пояс: GMT + 4



Вы не можете начинать темы
Вы не можете отвечать на сообщения
Вы не можете редактировать свои сообщения
Вы не можете удалять свои сообщения
Вы не можете голосовать в опросах
Вы не можете прикреплять файлы к сообщениям
Вы не можете скачивать файлы