Видоизмененный углерод / Altered Carbon (Сезон 1-2 , Серия 1-18 из 18) (Киаран Доннелли, Джереми Уэбб) [2018,Фантастика, триллер, драма,WEB-DLRip 1080p] [LostFilm+Eng]+[Subs Rus , ENG]

Ответить на тему
 
Автор Сообщение

Nikolai.Baranov ®

Пост Пост: #1 от 03-Мар-2020 15:48

[Цитировать]

-- -- Видоизмененный углерод / Altered Carbon (Сезон 1-2 , Серия 1-18 из 18) - Полный Комплект -- --Год выпуска: 2018 - 2020
[Выпущено: США , Netflix, Virago Productions, Mythology Entertainment, Phoenix Pictures, Skydance Television
Жанр:Фантастика, триллер, драма
Продолжительность: 00:45:00
Сезон:1-218
Серия:1-14
Количество серий в сезоне:18--Озвучка #1: Профессиональный многоголосый - LostFilm - Русский
Озвучка #2: Профессиональный многоголосый -Английский - Оригинал
Субтитры: Russian , English, English SDH
--Релиз Без Рекламы --MDB 8.1 --Режиссеры:
Киаран Доннелли, Джереми Уэбб, М. Дж. Бассетт, Салли Ричардсон-Уитфилд--В ролях: Энтони Маки, Лила Лорен, Симон Миссик, Крис Коннер, Дина Шихаби, Торбен Либрехт, Рене Голдсберри, Уилл Юн Ли, Джихе, Марта Игареда-- Земля, XXVII век. Мир, в котором появилась возможность «сгружать» человеческое сознание и личность из одного тела в другое. Идеальный мир и для преступников, и для полицейских, и для армии, но вряд ли идеальный для бывшего военного спецназовца и бывшего повстанца Такеси Ковача, которого миллиардер Бэнкрофт нанял для расследования гибели одного из своих тел. Внешне — явное самоубийство, но Бэнкрофт считает себя неспособным на такой поступок, а воспоминания о последних минутах жизни уничтожены метким выстрелом в запоминающее устройство....-- --Качество : 1-сезон - 2-сезон-WEB-DLRip - HEVC 10bit - 1080p.
Формат: MKV
Видео кодек: H265
Видео: 4652Кбит/сек,1920х960(2.000),в 23.976кадр/сек, HEVC (Main10@L5.1@Main)--Аудио Кодек:AC3
Аудио #1:MVO LostFilm @DD5.1 AC3, 640 Kbps, 48.0 KHz, 6 ch- LostFilm -Русский
Аудио #3: Original@DD5.1 AC3 ,640 Kbps, 48.0 KHz, 6 ch - English - Оригинал--

Доп. информация:

Звуковая дорожка сделана путем наложения чистого голоса озвучивателей на центральный канал оригинальной дорожки. Качество идентично звуковой дорожке.
--

Список эпизодов сезонов

= 1 сезон =
1 сезон 1 серия - Из прошлого - Out of the Past
1 сезон 2 серия - Падший ангел - Fallen Angel
1 сезон 3 серия - В укромном месте - In a Lonely Place
1 сезон 4 серия - Сила зла - Force of Evil
1 сезон 5 серия - Не тот человек - The Wrong Man
1 сезон 6 серия - Человек с моим лицом - Man with My Face
1 сезон 7 серия - Бездомный пес - Nora Inu
1 сезон 8 серия - Столкновение в ночи - Clash by Night
1 сезон 9 серия - Ярость в небесах - Rage in Heaven
1 сезон 10 серия - Убийцы - The Killers

= 2 сезон =
2 сезон 1 серия - Призрак женщины - Phantom Lady
2 сезон 2 серия - Отсроченный платеж - Payment Deferred
2 сезон 3 серия - Аллея кошмаров - Nightmare Alley
2 сезон 4 серия - Тень сомнения - Shadow of a Doubt
2 сезон 5 серия - Просыпаться от крика - I Wake Up Screaming
2 сезон 6 серия - Похорони меня - Bury Me Dead
2 сезон 7 серия - Опасный эксперимент - Experiment Perilous
2 сезон 8 серия - Сломанные ангелы - Broken Angels
--

MediaInfo 1-сезон

Общее
Уникальный идентификатор : 111976259762588105234839449508071466718 (0x543DD7DA3BB692FCC3A3C267B481E6DE)
Полное имя : E:\Nikolai.Baranov & PIRATIYA\Видоизмененный углерод - Altered Carbon\Altered.Carbon_S01-S02_HEVC- 10Bit_Н265_DD5.1_N.B_HD_1080_Rus_LostFilm_Eng\S01\Altered.Carbon_S01E01_HEVC_DD5.1_N.B_HD_1080_Rus_LostFilm_Eng.mkv
Формат : Matroska
Версия формата : Version 4
Размер файла : 2,43 Гбайт
Продолжительность : 58 м. 53 с.
Общий поток : 5916 Кбит/сек
Название фильма : Altered Carbon 2018 S01E01 @ Nikolai.Baranov & PIRATIYA
Дата кодирования : UTC 2020-03-03 05:05:13
Программа кодирования : mkvmerge v43.0.0 ('The Quartermaster') 64-bit
Библиотека кодирования : libebml v1.3.10 + libmatroska v1.5.2
Видео
Идентификатор : 1
Формат : HEVC
Формат/Информация : High Efficiency Video Coding
Профиль формата : Main 10@L5.1@Main
Идентификатор кодека : V_MPEGH/ISO/HEVC
Продолжительность : 58 м. 53 с.
Битрейт : 4652 Кбит/сек
Ширина : 1920 пикселей
Высота : 960 пикселей
Соотношение сторон : 2,000
Режим частоты кадров : Постоянный
Частота кадров : 23,976 (24000/1001) кадра/сек
Цветовое пространство : YUV
Субдискретизация насыщенности : 4:2:0
Битовая глубина : 10 бит
Бит/(Пиксели*Кадры) : 0.105
Размер потока : 1,91 Гбайт (79%)
Заголовок : Altered.Carbon_S01E01_HEVC_DD5.1_N.B_HD_1080_Rus_LostFilm_Eng
Язык : Russian
Default : Да
Forced : Нет
Цветовой диапазон : Full
Основные цвета : BT.709
Характеристики трансфера : BT.709
Коэффициенты матрицы : BT.709
Аудио #1
Идентификатор : 4
Формат : AC-3
Формат/Информация : Audio Coding 3
Коммерческое название : Dolby Digital
Идентификатор кодека : A_AC3
Продолжительность : 58 м. 2 с.
Вид битрейта : Постоянный
Битрейт : 640 Кбит/сек
Каналы : 6 каналов
ChannelLayout : L R C LFE Ls Rs
Частота : 48,0 КГц
Частота кадров : 31,250 кадров/сек (1536 SPF)
Метод сжатия : С потерями
Размер потока : 266 Мбайт (11%)
Заголовок : MVO LostFilm @DD5.1 AC3, 640 Kbps, 48.0 KHz, 6 ch
Язык : Russian
ServiceKind/String : Complete Main
Default : Да
Forced : Нет
Аудио #2
Идентификатор : 5
Формат : AC-3
Формат/Информация : Audio Coding 3
Коммерческое название : Dolby Digital
Идентификатор кодека : A_AC3
Продолжительность : 58 м. 2 с.
Вид битрейта : Постоянный
Битрейт : 640 Кбит/сек
Каналы : 6 каналов
ChannelLayout : L R C LFE Ls Rs
Частота : 48,0 КГц
Частота кадров : 31,250 кадров/сек (1536 SPF)
Метод сжатия : С потерями
Размер потока : 266 Мбайт (11%)
Заголовок : Original@DD5.1 AC3 ,640 Kbps, 48.0 KHz, 6 ch
Язык : English
ServiceKind/String : Complete Main
Default : Нет
Forced : Нет
Текст #1
Идентификатор : 2
Формат : UTF-8
Идентификатор кодека : S_TEXT/UTF8
Идентификатор кодека/Информация : UTF-8 Plain Text
Продолжительность : 18 м. 53 с.
Битрейт : 2 бит/сек
ElementCount : 5
Размер потока : 311 байт (0%)
Заголовок : Из прошлого-Russian-Forced
Язык : Russian
Default : Да
Forced : Нет
Текст #2
Идентификатор : 3
Формат : UTF-8
Идентификатор кодека : S_TEXT/UTF8
Идентификатор кодека/Информация : UTF-8 Plain Text
Продолжительность : 53 м. 37 с.
Битрейт : 111 бит/сек
ElementCount : 706
Размер потока : 43,7 Кбайт (0%)
Заголовок : Из прошлого-Russian
Язык : Russian
Default : Нет
Forced : Нет
Текст #3
Идентификатор : 6
Формат : UTF-8
Идентификатор кодека : S_TEXT/UTF8
Идентификатор кодека/Информация : UTF-8 Plain Text
Продолжительность : 25 м. 48 с.
Битрейт : 1 бит/сек
ElementCount : 9
Размер потока : 248 байт (0%)
Заголовок : -Out of the Past-Eng-Forced
Язык : English
Default : Нет
Forced : Нет
Текст #4
Идентификатор : 7
Формат : UTF-8
Идентификатор кодека : S_TEXT/UTF8
Идентификатор кодека/Информация : UTF-8 Plain Text
Продолжительность : 57 м. 24 с.
Битрейт : 72 бит/сек
ElementCount : 828
Размер потока : 30,6 Кбайт (0%)
Заголовок : Out of the Past-Original - SDH
Язык : English
Default : Нет
Forced : Нет
Текст #5
Идентификатор : 8
Формат : UTF-8
Идентификатор кодека : S_TEXT/UTF8
Идентификатор кодека/Информация : UTF-8 Plain Text
Продолжительность : 54 м. 57 с.
Битрейт : 67 бит/сек
ElementCount : 730
Размер потока : 27,2 Кбайт (0%)
Заголовок : Out of the Past-Original
Язык : English
Default : Нет
Forced : Нет
Меню
00:00:00.000 : ru:Глава 01 / ru:Глава 01 / ru:Глава 01 / ru:Глава 01 / ru:Глава 01 / ru:Глава 01 / ru:Глава 01 / ru:Глава 01
--

MediaInfo 2-сезон

Общее
Уникальный идентификатор : 257433429941489463708267407883649493430 (0xC1ABE0093EA430A24C45C616D00129B6)
Полное имя : E:\Nikolai.Baranov & PIRATIYA\Видоизмененный углерод - Altered Carbon\Altered.Carbon_S01-S02_HEVC- 10Bit_Н265_DD5.1_N.B_HD_1080_Rus_LostFilm_Eng\S02\Altered.Carbon_S02E01_HEVC_DD5.1_N.B_HD_1080_Rus_LostFilm_Eng.mkv
Формат : Matroska
Версия формата : Version 4
Размер файла : 1,90 Гбайт
Продолжительность : 45 м. 7 с.
Общий поток : 6022 Кбит/сек
Название фильма : Altered Carbon 2020 S02E01 @ Nikolai.Baranov & PIRATIYA
Дата кодирования : UTC 2020-03-03 09:47:08
Программа кодирования : mkvmerge v43.0.0 ('The Quartermaster') 64-bit
Библиотека кодирования : libebml v1.3.10 + libmatroska v1.5.2
Видео
Идентификатор : 1
Формат : HEVC
Формат/Информация : High Efficiency Video Coding
Профиль формата : Main 10@L5.1@Main
Идентификатор кодека : V_MPEGH/ISO/HEVC
Продолжительность : 45 м. 7 с.
Битрейт : 4740 Кбит/сек
Ширина : 1920 пикселей
Высота : 960 пикселей
Соотношение сторон : 2,000
Режим частоты кадров : Постоянный
Частота кадров : 23,976 (24000/1001) кадра/сек
Цветовое пространство : YUV
Субдискретизация насыщенности : 4:2:0
Битовая глубина : 10 бит
Бит/(Пиксели*Кадры) : 0.107
Размер потока : 1,49 Гбайт (79%)
Заголовок : Altered.Carbon_S02E01_HEVC_DD5.1_N.B_HD_1080_Rus_LostFilm_Eng
Язык : Russian
Default : Да
Forced : Нет
Цветовой диапазон : Full
Основные цвета : BT.709
Характеристики трансфера : BT.709
Коэффициенты матрицы : BT.709
Аудио #1
Идентификатор : 4
Формат : AC-3
Формат/Информация : Audio Coding 3
Коммерческое название : Dolby Digital
Идентификатор кодека : A_AC3
Продолжительность : 45 м. 7 с.
Вид битрейта : Постоянный
Битрейт : 640 Кбит/сек
Каналы : 6 каналов
ChannelLayout : L R C LFE Ls Rs
Частота : 48,0 КГц
Частота кадров : 31,250 кадров/сек (1536 SPF)
Метод сжатия : С потерями
Размер потока : 207 Мбайт (11%)
Заголовок : MVO LostFilm @DD5.1 AC3, 640 Kbps, 48.0 KHz, 6 ch
Язык : Russian
ServiceKind/String : Complete Main
Default : Да
Forced : Нет
Аудио #2
Идентификатор : 5
Формат : AC-3
Формат/Информация : Audio Coding 3
Коммерческое название : Dolby Digital
Идентификатор кодека : A_AC3
Продолжительность : 45 м. 7 с.
Вид битрейта : Постоянный
Битрейт : 640 Кбит/сек
Каналы : 6 каналов
ChannelLayout : L R C LFE Ls Rs
Частота : 48,0 КГц
Частота кадров : 31,250 кадров/сек (1536 SPF)
Метод сжатия : С потерями
Размер потока : 207 Мбайт (11%)
Заголовок : Original@DD5.1 AC3 ,640 Kbps, 48.0 KHz, 6 ch
Язык : English
ServiceKind/String : Complete Main
Default : Нет
Forced : Нет
Текст #1
Идентификатор : 2
Формат : UTF-8
Идентификатор кодека : S_TEXT/UTF8
Идентификатор кодека/Информация : UTF-8 Plain Text
Продолжительность : 43 м. 48 с.
Битрейт : 6 бит/сек
ElementCount : 42
Размер потока : 2,01 Кбайт (0%)
Заголовок : Призрак женщины-Russian-Forced
Язык : Russian
Default : Да
Forced : Нет
Текст #2
Идентификатор : 3
Формат : UTF-8
Идентификатор кодека : S_TEXT/UTF8
Идентификатор кодека/Информация : UTF-8 Plain Text
Продолжительность : 43 м. 45 с.
Битрейт : 86 бит/сек
ElementCount : 503
Размер потока : 27,7 Кбайт (0%)
Заголовок : Призрак женщины-Russian
Язык : Russian
Default : Нет
Forced : Нет
Текст #3
Идентификатор : 6
Формат : UTF-8
Идентификатор кодека : S_TEXT/UTF8
Идентификатор кодека/Информация : UTF-8 Plain Text
Продолжительность : 24 м. 41 с.
Битрейт : 1 бит/сек
ElementCount : 8
Размер потока : 260 байт (0%)
Заголовок : Phantom Lady-Eng-Forced
Язык : English
Default : Нет
Forced : Нет
Текст #4
Идентификатор : 7
Формат : UTF-8
Идентификатор кодека : S_TEXT/UTF8
Идентификатор кодека/Информация : UTF-8 Plain Text
Продолжительность : 43 м. 49 с.
Битрейт : 62 бит/сек
ElementCount : 601
Размер потока : 20,0 Кбайт (0%)
Заголовок : Phantom Lady-Original - SDH
Язык : English
Default : Нет
Forced : Нет
Текст #5
Идентификатор : 8
Формат : UTF-8
Идентификатор кодека : S_TEXT/UTF8
Идентификатор кодека/Информация : UTF-8 Plain Text
Продолжительность : 42 м. 10 с.
Битрейт : 59 бит/сек
ElementCount : 529
Размер потока : 18,3 Кбайт (0%)
Заголовок : Phantom Lady-Original
Язык : English
Default : Нет
Forced : Нет
Меню
00:00:06.235 : en:Intro start
00:01:46.484 : en:Intro end
--

Скриншоты

-- 1-сезон.-- 2-сезон.--

Как закачать отдельный файл

1. Открыть торрент
2. Снять галки с тех файлов торрента, которые мы не хотим закачивать. Оставляем только на нужных нам файлах (файле).
3. Нажать О.К.
В клиенте utorrent
Инструкция
1) Открыть торрент

2) Снять галки с тех файлов торрента, которые мы не хотим закачивать:
* либо вручную, снимая с каждого файла галку( скрин №1)
* либо, нажав кнопку "Снять метки (Select None)", сняв сразу со всех файлов(скрин №2)
№1

№2

Оставляем только на нужных нам файлах (файле).

3)Нажать О.К
-- -- --Внимание!!! 10.03. 2020. РАЗДАЧА ОБНОВЛЕНА. ДОБАВЛЕН - 1 СЕЗОН -8- СЕРИЯ 2 СЕЗОНА -ФИНАЛ 2 СЕЗОНА . ОБНОВИТЕ ТОРЕНТ ФАЙЛ. ПРИЯТНОГО ПРОСМОТРА . Поблагодарить:
ЯД: 410017546713876
--Релиз от: Nikolai.Baranov & PIRATIYA -- -- -- --Время раздачи : 24/7---
Скачать

Скачать торрент! Видоизмененный углерод / Altered Carbon (Сезон 1-2 , Серия 1-18 из 18) (Киаран Доннелли, Джереми Уэбб) [2018,Фантастика, триллер, драма,WEB-DLRip 1080p] [LostFilm+Eng]+[Subs Rus , ENG]

Как скачивать? · Что такое торрент? · Рейтинг и ограничения

Сайт не распространяет и не хранит электронные версии произведений, а лишь предоставляет доступ к создаваемому пользователями каталогу ссылок на торрент-файлы, которые содержат только списки хеш-сумм

 
Показать сообщения:    
Ответить на тему

Текущее время: Сегодня 21:26

Часовой пояс: GMT + 4



Вы не можете начинать темы
Вы не можете отвечать на сообщения
Вы не можете редактировать свои сообщения
Вы не можете удалять свои сообщения
Вы не можете голосовать в опросах
Вы не можете прикреплять файлы к сообщениям
Вы не можете скачивать файлы